<?xml version="1.0" standalone="no"?>
<!DOCTYPE svg PUBLIC "-//W3C//DTD SVG 1.1//EN" "http://www.w3.org/Graphics/SVG/1.1/DTD/svg11.dtd" >
<svg xmlns="http://www.w3.org/2000/svg">
<metadata>
Created by FontPrep 20130207 at Mon Mar 23 10:16:17 2015
 By Miles Ryan
(C)2000 House Industries/Brand Design Co., Inc.
</metadata>
<defs>
<font id="cdea7e0405da7505428b8d7871fd886c" horiz-adv-x='1024' >
  <font-face 
    font-family="Chalet-NewYorkNineteenSixty"
    font-weight="400"
    font-stretch="normal"
    units-per-em="2048"
    panose-1="2 0 0 0 0 0 0 0 0 0"
    ascent="1638"
    descent="-410"
    x-height="1055"
    cap-height="1421"
    bbox="-94 -516 2396 1958"
    underline-thickness="16"
    underline-position="-104"
    unicode-range="U+0020-FB02"
  />
<missing-glyph horiz-adv-x="1024" 
 />
    <glyph glyph-name="ffl" unicode="ffl" horiz-adv-x="1730" 
d="M414 795v-795h-271v795h-127v258h127q4 213 129 339t342 101v-242q-199 12 -200 -198h311q4 213 129 339t342 101v-242q-199 12 -201 -198h191v-258h-191v-795h-270v795h-311zM1604 1524v-1524h-271v1524h271z" />
    <glyph glyph-name="ffi" unicode="ffi" horiz-adv-x="1703" 
d="M1573 1053v-1053h-270v795h-308v-795h-270v795h-311v-795h-271v795h-127v258h127q4 213 129 339t342 101v-242q-199 12 -200 -198h311q4 213 129 339t342 101v-242q-199 12 -201 -198h578zM1573 1421v-252h-270v252h270z" />
    <glyph glyph-name="ff" unicode="ff" horiz-adv-x="1224" 
d="M414 795v-795h-271v795h-127v258h127q4 213 129 339t342 101v-242q-199 12 -200 -198h311q4 213 129 339t342 101v-242q-199 12 -201 -198h191v-258h-191v-795h-270v795h-311z" />
    <glyph glyph-name="fi" unicode="fi" horiz-adv-x="1122" 
d="M721 795h-307v-795h-271v795h-127v258h127q4 213 129 339t342 101v-242q-199 12 -200 -198h577v-1053h-270v795zM991 1421v-252h-270v252h270z" />
    <glyph glyph-name="fl" unicode="fl" horiz-adv-x="1148" 
d="M604 1053v-258h-190v-795h-271v795h-127v258h127q4 213 129 339t342 101v-242q-198 13 -200 -198h190zM1022 1524v-1524h-270v1524h270z" />
    <glyph glyph-name=".notdef" horiz-adv-x="1024" 
 />
    <glyph glyph-name=".notdef" horiz-adv-x="1024" 
 />
    <glyph glyph-name=".null" horiz-adv-x="0" 
 />
    <glyph glyph-name="nonmarkingreturn" horiz-adv-x="681" 
 />
    <glyph glyph-name="space" unicode=" " horiz-adv-x="630" 
 />
    <glyph glyph-name="exclam" unicode="!" horiz-adv-x="587" 
d="M430 268v-268h-270v268h270zM430 1421v-997h-270v997h270z" />
    <glyph glyph-name="quotedbl" unicode="&#x22;" horiz-adv-x="763" 
d="M68 1421h264l-47 -587h-172zM434 1421h262l-45 -587h-174z" />
    <glyph glyph-name="numbersign" unicode="#" horiz-adv-x="1101" 
d="M678 885h-201l-51 -353h199zM881 885l-52 -353h175l-29 -196h-176l-37 -260h-203l39 260h-203l-37 -260h-202l39 260h-177l29 196h174l51 353h-174l29 194h176l37 267h203l-37 -267h201l36 267h205l-39 -267h174l-28 -194h-174z" />
    <glyph glyph-name="dollar" unicode="$" horiz-adv-x="1009" 
d="M709 455q0 55 -29 88t-117 59v-287q146 27 146 140zM311 975q0 -39 28 -65t91 -50v244q-119 -27 -119 -129zM563 -25h-133v121q-162 20 -267 128t-106 284h234q0 -147 139 -189v312q-354 80 -354 338q0 147 95 244t259 114v119h133v-119q162 -21 256 -125t94 -264h-235
q0 129 -115 164v-275q164 -38 272 -113q107 -74 107 -238t-100 -264t-279 -118v-119z" />
    <glyph glyph-name="percent" unicode="%" horiz-adv-x="1634" 
d="M1231 522q-63 0 -109 -48t-47 -116q0 -68 46 -116q45 -48 109 -47q64 0 110 48q46 47 46 115t-46 116t-109 48zM403 899q63 0 110 48q46 48 46 116t-46 116q-45 48 -109 48t-109 -48t-45 -116t45 -116t108 -48zM1231 0q-152 0 -255 104t-104 254q0 150 104 254t255 104
q152 0 255 -104t103 -254t-103 -254t-255 -104zM317 0l781 1421h219l-780 -1421h-220zM403 1421q152 0 255 -104q104 -104 104 -254t-104 -253t-255 -103q-152 0 -255 104t-103 253t103 253t255 104z" />
    <glyph glyph-name="ampersand" unicode="&#x26;" horiz-adv-x="1351" 
d="M591 215q118 0 206 53l-312 391q-164 -96 -163 -233q0 -88 75 -150q76 -61 194 -61zM481 1112q0 -58 64 -135l14 -16q129 76 129 172q0 45 -29 73t-73 27q-44 0 -75 -31q-30 -32 -30 -90zM586 1458q152 0 249 -97t97 -245q0 -199 -232 -334l256 -319q31 98 25 254h242
q12 -279 -99 -465l201 -252h-313l-62 76q-147 -100 -365 -100t-368 128q-150 129 -149 322q0 250 276 412q-110 128 -110 276t100 246t252 98z" />
    <glyph glyph-name="quotesingle" unicode="'" horiz-adv-x="399" 
d="M68 1421h262l-45 -587h-174z" />
    <glyph glyph-name="parenleft" unicode="(" horiz-adv-x="665" 
d="M338 690q0 -520 311 -928h-215q-158 162 -255 414t-97 514t97 514t255 414h215q-311 -408 -311 -928z" />
    <glyph glyph-name="parenright" unicode=")" horiz-adv-x="665" 
d="M231 1618q158 -162 255 -414q199 -517 0 -1028q-97 -252 -255 -414h-213q309 406 310 928q0 522 -310 928h213z" />
    <glyph glyph-name="asterisk" unicode="*" horiz-adv-x="800" 
d="M745 1038l-217 4l113 -184l-137 -80l-105 191l-104 -191l-135 80l110 184l-215 -4v158l215 -6l-112 188l137 78l104 -192l105 192l137 -78l-113 -188l217 6v-158z" />
    <glyph glyph-name="plus" unicode="+" horiz-adv-x="1073" 
d="M997 440h-325v-336h-271v336h-325v252h325v334h271v-334h325v-252z" />
    <glyph glyph-name="comma" unicode="," horiz-adv-x="479" 
d="M385 289v-324q0 -133 -72 -211t-192 -90v127q127 29 127 172v37h-154v289h291z" />
    <glyph glyph-name="hyphen" unicode="-" horiz-adv-x="677" 
d="M61 442v252h555v-252h-555z" />
    <glyph glyph-name="hyphen" unicode="&#xad;" horiz-adv-x="677" 
d="M61 442v252h555v-252h-555z" />
    <glyph glyph-name="period" unicode="." horiz-adv-x="479" 
d="M385 289v-289h-291v289h291z" />
    <glyph glyph-name="slash" unicode="/" horiz-adv-x="690" 
d="M4 0l432 1524h281l-432 -1524h-281z" />
    <glyph glyph-name="zero" unicode="0" horiz-adv-x="1198" 
d="M600 223q204 0 249 338q9 68 9 174t-42 252q-24 84 -79 136q-55 53 -137 53q-205 1 -251 -340q-9 -68 -9 -175t42 -250q24 -83 80 -135t138 -53zM600 1423q205 0 357 -160q77 -81 123 -227t46 -338q0 -193 -46 -338q-80 -253 -289 -347q-91 -40 -191 -40t-191 40
t-168 121t-123 226t-46 338t46 338q82 257 291 347q91 40 191 40z" />
    <glyph glyph-name="one" unicode="1" horiz-adv-x="860" 
d="M582 1421v-1421h-271v991h-221v176q104 2 184 67t91 187h217z" />
    <glyph glyph-name="two" unicode="2" horiz-adv-x="1153" 
d="M1053 252v-252h-985v121q0 233 134 373q68 70 134 118t204 122q138 75 192 135t54 134t-50 124q-50 51 -153 51t-163 -72t-62 -182h-272q0 209 131 356t363 147t354 -128q123 -128 123 -310t-126 -296q-69 -62 -127 -99t-173 -100q-252 -138 -262 -242h684z" />
    <glyph glyph-name="three" unicode="3" horiz-adv-x="1142" 
d="M1077 424q0 -180 -137 -314t-379 -134t-375 134t-137 345h270q1 -109 65 -169t177 -60t179 56t67 146q0 180 -232 180h-90v236h56q225 0 225 164q0 78 -51 124t-149 46t-151 -62q-54 -62 -55 -147h-270q0 195 130 327t352 131q222 1 340 -115t118 -276q0 -94 -46 -170
t-134 -118q117 -35 172 -124t55 -200z" />
    <glyph glyph-name="four" unicode="4" horiz-adv-x="1134" 
d="M670 528v564l-353 -564h353zM1073 289h-151v-289h-252v289h-621v239l557 893h316v-893h151v-239z" />
    <glyph glyph-name="five" unicode="5" horiz-adv-x="1126" 
d="M1061 458q-1 -208 -145 -345t-359 -137t-352 117q-137 118 -150 302h273q14 -78 75 -121t155 -43q94 -1 163 59q70 60 70 170q-1 110 -63 179q-62 68 -163 68q-141 0 -221 -123l-244 65l84 772h789v-252h-580l-35 -297q106 68 226 68q205 0 341 -137t136 -345z" />
    <glyph glyph-name="six" unicode="6" horiz-adv-x="1153" 
d="M829 452q0 99 -64 168q-65 68 -165 68t-165 -68t-65 -168q0 -99 66 -168q64 -69 164 -69t165 69q64 69 64 168zM614 928q208 0 346 -132t138 -340t-140 -344t-354 -136q-213 0 -363 146q-77 75 -123 209t-46 310q0 375 144 587t398 212q186 0 310 -109t153 -295h-272
q-15 66 -63 110t-128 44q-116 0 -184 -96t-84 -256q113 90 268 90z" />
    <glyph glyph-name="seven" unicode="7" horiz-adv-x="1056" 
d="M1022 1421v-237q-242 -197 -370 -501t-128 -683h-270q0 369 111 675t321 494h-651v252h987z" />
    <glyph glyph-name="eight" unicode="8" horiz-adv-x="1140" 
d="M815 422q0 102 -72 156t-173 53q-101 0 -173 -53q-71 -54 -71 -156t72 -157q73 -54 171 -54q98 1 172 55t74 156zM379 1041q0 -79 57 -125t134 -46t135 46q57 46 57 125t-57 122t-135 43t-134 -43q-57 -43 -57 -122zM1077 410q0 -186 -145 -310q-146 -124 -362 -125
q-216 0 -361 124t-146 311q-1 112 55 204t152 150q-147 115 -147 286q0 170 127 280q128 110 320 110t320 -110t128 -282t-148 -282q98 -57 152 -149t55 -207z" />
    <glyph glyph-name="nine" unicode="9" horiz-adv-x="1148" 
d="M782 952q0 104 -64 177q-65 73 -165 73t-165 -73q-64 -73 -64 -177t64 -175t165 -71q100 0 165 71q64 71 64 175zM547 -25q-176 -1 -299 95t-160 254h291q37 -100 170 -101q248 0 264 367q-43 -51 -120 -83t-161 -32q-200 0 -338 134t-138 345q0 210 140 348t359 138
t369 -162t154 -526t-129 -571q-132 -206 -402 -206z" />
    <glyph glyph-name="colon" unicode=":" horiz-adv-x="501" 
d="M397 289v-289h-291v289h291zM397 1018v-289h-291v289h291z" />
    <glyph glyph-name="semicolon" unicode=";" horiz-adv-x="501" 
d="M258 0h-152v289h291v-324q1 -133 -71 -211t-193 -90v127q125 27 125 172v37zM397 1018v-289h-291v289h291z" />
    <glyph glyph-name="semicolon" unicode="&#x37e;" horiz-adv-x="501" 
d="M258 0h-152v289h291v-324q1 -133 -71 -211t-193 -90v127q125 27 125 172v37zM397 1018v-289h-291v289h291z" />
    <glyph glyph-name="less" unicode="&#x3c;" horiz-adv-x="919" 
d="M856 786l-526 -221l526 -223v-276l-793 364v268l793 367v-279z" />
    <glyph glyph-name="equal" unicode="=" horiz-adv-x="1034" 
d="M958 461v-250h-882v250h882zM958 922v-252h-882v252h882z" />
    <glyph glyph-name="greater" unicode="&#x3e;" horiz-adv-x="921" 
d="M858 698v-268l-795 -364v276l527 223l-527 221v279z" />
    <glyph glyph-name="question" unicode="?" horiz-adv-x="1130" 
d="M676 268v-268h-270v268h270zM336 991h-268q0 207 133 335t356 128t351 -116t128 -300q0 -116 -61 -198t-155 -144t-125 -111q-30 -48 -29 -114v-47h-248v47q0 153 74 246q37 47 67 74q31 27 91 69t90 84q28 42 28 106t-56 110t-158 46t-160 -60q-58 -61 -58 -155z" />
    <glyph glyph-name="at" unicode="@" horiz-adv-x="1525" 
d="M798 887q-46 0 -94 -49t-72 -122t-8 -123t62 -50q45 0 94 50t72 122q24 72 8 122t-62 50zM815 -27q-317 0 -534 211q-217 210 -217 526t211 530q212 214 518 214q380 0 570 -272q99 -143 99 -343t-116 -343q-116 -144 -268 -144q-154 0 -220 111q-90 -115 -216 -115
t-189 116t-19 270t146 247q104 94 210 94t152 -86l16 53h185l-123 -397q-16 -51 1 -79t52 -27q76 0 131 90q56 90 56 203q0 112 -41 198q-74 154 -257 214q-81 26 -169 26q-217 0 -372 -163t-155 -397t157 -393q157 -158 401 -158t393 154h243q-215 -340 -645 -340z" />
    <glyph glyph-name="A" unicode="A" horiz-adv-x="1366" 
d="M877 537l-199 583l-199 -583h398zM963 285h-568l-96 -285h-287l496 1421h342l496 -1421h-287z" />
    <glyph glyph-name="B" unicode="B" horiz-adv-x="1333" 
d="M993 425q0 93 -55 141t-158 48h-379v-366h385q90 0 149 42q58 42 58 135zM786 1176h-385v-314h385q70 0 118 44t48 115t-45 113t-121 42zM1270 418q0 -190 -121 -304t-326 -114h-692v1421h655q209 0 319 -101q109 -102 109 -282t-139 -280q195 -102 195 -340z" />
    <glyph glyph-name="C" unicode="C" horiz-adv-x="1449" 
d="M756 -25q-291 0 -490 215q-198 214 -198 526t198 527q199 215 490 215q240 0 410 -127t237 -346h-293q-49 101 -142 163t-212 62q-174 0 -296 -145t-122 -349t122 -349t296 -146q117 -1 211 63t143 167h291q-68 -219 -240 -347t-405 -129z" />
    <glyph glyph-name="D" unicode="D" horiz-adv-x="1366" 
d="M957 1018q-39 70 -115 110t-185 41h-256v-917h256q113 0 192 46t115 122q64 135 64 303t-71 295zM1298 712q0 -328 -174 -520t-467 -192h-526v1421h526q297 0 469 -191t172 -518z" />
    <glyph glyph-name="E" unicode="E" horiz-adv-x="1245" 
d="M1184 252v-252h-1053v1421h1038v-252h-768v-303h656v-252h-656v-362h783z" />
    <glyph glyph-name="F" unicode="F" horiz-adv-x="1200" 
d="M401 1169v-338h641v-251h-641v-580h-270v1421h1016v-252h-746z" />
    <glyph glyph-name="G" unicode="G" horiz-adv-x="1531" 
d="M1430 791v-791h-250v154q-150 -178 -432 -178t-481 213t-199 525t199 527q200 215 491 215q236 0 408 -126t237 -347h-291q-43 98 -139 163t-215 64q-176 0 -298 -145t-122 -349t126 -349t306 -146q147 0 260 90t152 228h-385v252h633z" />
    <glyph glyph-name="H" unicode="H" horiz-adv-x="1413" 
d="M1280 1421v-1421h-270v600h-607v-600h-272v1421h272v-569h607v569h270z" />
    <glyph glyph-name="I" unicode="I" horiz-adv-x="542" 
d="M408 1421v-1421h-271v1421h271z" />
    <glyph glyph-name="J" unicode="J" horiz-adv-x="1081" 
d="M498 -27q-209 0 -336 132t-127 333v99h270v-107q0 -80 49 -136q50 -56 144 -56t144 56t50 136v991h271v-983q0 -201 -128 -333t-337 -132z" />
    <glyph glyph-name="K" unicode="K" horiz-adv-x="1327" 
d="M403 0h-272v1421h272v-573l535 573h373l-578 -594l602 -827h-352l-440 631l-140 -146v-485z" />
    <glyph glyph-name="L" unicode="L" horiz-adv-x="1144" 
d="M403 1421v-1169h707v-252h-979v1421h272z" />
    <glyph glyph-name="M" unicode="M" horiz-adv-x="1660" 
d="M1530 1421v-1421h-266v1042l-289 -1042h-289l-289 1042v-1042h-266v1421h401l297 -1065l297 1065h404z" />
    <glyph glyph-name="N" unicode="N" horiz-adv-x="1437" 
d="M1307 1421v-1421h-326l-580 1012v-1012h-270v1421h326l577 -1011v1011h273z" />
    <glyph glyph-name="O" unicode="O" horiz-adv-x="1525" 
d="M340 716q0 -200 124 -342t299 -143q175 1 299 143t124 342t-124 342t-299 142t-299 -142t-124 -342zM764 1456q299 0 497 -214q197 -214 197 -526t-197 -527q-198 -214 -497 -214t-498 214q-198 215 -198 527t198 526q199 214 498 214z" />
    <glyph glyph-name="P" unicode="P" horiz-adv-x="1249" 
d="M727 1169h-326v-413h326q201 0 201 206t-201 207zM729 1421q221 1 345 -123t124 -330t-127 -333t-336 -127h-334v-508h-270v1421h598z" />
    <glyph glyph-name="Q" unicode="Q" horiz-adv-x="1523" 
d="M1186 720q0 196 -124 338t-299 142t-300 -142t-125 -342t125 -342t301 -143q64 0 127 23l-211 223h307l84 -90q115 137 115 333zM764 -25q-299 0 -498 214q-198 215 -198 527t198 526q199 214 498 214t496 -214q196 -214 196 -527t-196 -527l200 -213h-307l-72 76
q-145 -76 -317 -76z" />
    <glyph glyph-name="R" unicode="R" horiz-adv-x="1366" 
d="M401 793h385q46 0 102 22q111 44 109 168q0 93 -50 140q-50 46 -167 46h-379v-376zM1225 172q0 -90 32 -172h-274q-29 68 -29 156v217q0 90 -45 133t-139 43h-369v-549h-270v1421h649q225 0 357 -112q131 -113 131 -312q0 -231 -199 -323q156 -86 156 -303v-199z" />
    <glyph glyph-name="S" unicode="S" horiz-adv-x="1325" 
d="M664 1458q254 0 396 -140t142 -327h-270q0 95 -74 155t-195 60t-201 -43t-81 -117q0 -74 70 -110t227 -68q158 -32 248 -62q223 -73 283 -203q36 -75 36 -181q0 -205 -159 -326t-429 -121q-219 0 -394 118q-85 59 -136 157t-51 221h270q0 -117 95 -183t221 -65
q126 0 220 48q93 48 93 143q0 70 -73 114q-72 44 -226 75q-154 29 -233 55t-163 73q-170 95 -169 313q0 184 149 299t404 115z" />
    <glyph glyph-name="T" unicode="T" horiz-adv-x="1097" 
d="M1065 1169h-381v-1169h-270v1169h-381v252h1032v-252z" />
    <glyph glyph-name="U" unicode="U" horiz-adv-x="1331" 
d="M1214 1421v-858q0 -276 -142 -432t-406 -156t-406 156q-141 156 -141 432v858h270v-866q1 -317 277 -317t276 317v866h272z" />
    <glyph glyph-name="V" unicode="V" horiz-adv-x="1236" 
d="M1229 1421l-465 -1421h-291l-467 1421h287l325 -1095l324 1095h287z" />
    <glyph glyph-name="W" unicode="W" horiz-adv-x="1822" 
d="M1819 1421l-387 -1421h-299l-220 1071l-221 -1071h-297l-389 1421h287l244 -1034l213 1034h327l211 -1034l246 1034h285z" />
    <glyph glyph-name="X" unicode="X" horiz-adv-x="1247" 
d="M926 0l-301 498l-299 -498h-322l459 727l-438 694h319l281 -465l280 465h322l-439 -694l457 -727h-319z" />
    <glyph glyph-name="Y" unicode="Y" horiz-adv-x="1218" 
d="M745 0h-272v545l-477 876h305l307 -608l310 608h305l-478 -876v-545z" />
    <glyph glyph-name="Z" unicode="Z" horiz-adv-x="1214" 
d="M1161 252v-252h-1110v242l762 927h-737v252h1067v-239l-762 -930h780z" />
    <glyph glyph-name="bracketleft" unicode="[" horiz-adv-x="649" 
d="M373 1456v-1483h250v-221h-492v1925h492v-221h-250z" />
    <glyph glyph-name="backslash" unicode="\" horiz-adv-x="692" 
d="M686 0h-280l-433 1524h283z" />
    <glyph glyph-name="bracketright" unicode="]" horiz-adv-x="690" 
d="M559 1677v-1925h-512v221h260v1483h-260v221h512z" />
    <glyph glyph-name="asciicircum" unicode="^" horiz-adv-x="1134" 
d="M797 528l-230 625l-229 -625h-270l366 893h266l367 -893h-270z" />
    <glyph glyph-name="underscore" unicode="_" horiz-adv-x="1650" 
d="M1655 -143v-252h-1659v252h1659z" />
    <glyph glyph-name="grave" unicode="`" horiz-adv-x="854" 
d="M152 1481h301l190 -289h-199z" />
    <glyph glyph-name="a" unicode="a" horiz-adv-x="1191" 
d="M336 324q0 -105 204 -105q106 -1 186 47q81 48 81 144v98q-73 -48 -219 -64t-199 -43t-53 -77zM63 322q0 164 115 232q116 68 294 85q178 16 252 41t73 76t-53 80q-52 28 -136 28t-152 -35t-83 -98h-271q20 154 156 252t340 98q121 -1 211 -31t136 -71t80 -108t34 -150
v-549q0 -84 31 -172h-248q-16 37 -27 98q-113 -118 -308 -118t-320 89q-124 89 -124 253z" />
    <glyph glyph-name="b" unicode="b" horiz-adv-x="1267" 
d="M666 227q114 0 192 86t78 213t-79 214t-191 87t-192 -89q-79 -89 -79 -213t79 -211t192 -87zM718 1077q196 0 342 -159t146 -391t-146 -391t-347 -159t-330 136v-113h-260v1524h272v-570q127 123 323 123z" />
    <glyph glyph-name="c" unicode="c" horiz-adv-x="1169" 
d="M61 526q0 232 155 394t390 161q190 0 326 -101t182 -280h-289q-29 58 -88 96t-131 38q-114 0 -192 -92t-78 -217q0 -126 79 -215t191 -89q74 0 134 39t87 96h289q-45 -178 -181 -279t-329 -102q-236 0 -390 160t-155 391z" />
    <glyph glyph-name="d" unicode="d" horiz-adv-x="1273" 
d="M874 525q0 124 -78 213q-79 89 -192 89q-114 0 -192 -87t-78 -214t79 -213t191 -86t192 87q78 87 78 211zM1145 1524v-1524h-258v113q-131 -135 -331 -135t-347 158q-147 159 -147 391q0 231 146 391q148 160 342 160t324 -124v570h271z" />
    <glyph glyph-name="e" unicode="e" horiz-adv-x="1198" 
d="M602 844q-94 0 -164 -54q-69 -55 -98 -147h524q-25 92 -96 147q-72 54 -166 54zM600 213q158 0 223 123h289q-47 -164 -182 -262t-343 -98t-367 160q-159 161 -159 390q0 228 159 392q160 164 394 164t391 -180q157 -179 128 -480h-797q27 -96 97 -153q71 -56 167 -56z
" />
    <glyph glyph-name="f" unicode="f" horiz-adv-x="643" 
d="M414 1051h190v-240h-190v-811h-271v811h-127v240h127q4 215 129 341t342 101v-254q-200 17 -200 -188z" />
    <glyph glyph-name="g" unicode="g" horiz-adv-x="1253" 
d="M874 525q0 124 -78 213q-79 89 -192 89q-114 0 -192 -87t-78 -214t79 -213t191 -86t192 87q78 87 78 211zM1145 1055v-1002q-1 -261 -147 -415t-400 -154q-193 0 -337 101t-175 268h297q25 -57 88 -87t127 -30q139 0 208 83t68 230v51q-130 -123 -324 -123t-341 159
t-147 391q0 231 146 391q148 160 348 160t331 -136v113h258z" />
    <glyph glyph-name="h" unicode="h" horiz-adv-x="1181" 
d="M1067 616v-616h-270v616q-1 63 -25 110q-48 93 -172 91q-90 0 -147 -56t-58 -145v-616h-272v1524h272v-525q109 82 242 82q193 0 311 -128t119 -337z" />
    <glyph glyph-name="i" unicode="i" horiz-adv-x="528" 
d="M399 1055v-1055h-270v1055h270zM399 1421v-252h-270v252h270z" />
    <glyph glyph-name="j" unicode="j" horiz-adv-x="489" 
d="M383 1055v-1184q0 -201 -114 -283t-320 -53v240q84 -7 123 21t39 106v1153h272zM383 1421v-252h-272v252h272z" />
    <glyph glyph-name="k" unicode="k" horiz-adv-x="1142" 
d="M393 0h-270v1524h270v-852l346 383h373l-393 -412l416 -643h-344l-263 444l-135 -141v-303z" />
    <glyph glyph-name="l" unicode="l" horiz-adv-x="526" 
d="M399 1524v-1524h-270v1524h270z" />
    <glyph glyph-name="m" unicode="m" horiz-adv-x="1853" 
d="M795 616q-1 212 -211 210q-74 0 -131 -60q-57 -59 -58 -150v-616h-272v1055h260v-103q106 129 272 129q199 0 316 -149q123 150 327 150t322 -128q119 -127 119 -338v-616h-271v616q0 61 -24 113q-46 98 -172 96q-90 0 -148 -59t-57 -150v-616h-272v616z" />
    <glyph glyph-name="n" unicode="n" horiz-adv-x="1181" 
d="M795 616q1 212 -211 210q-76 0 -133 -60q-57 -59 -58 -150v-616h-270v1055h258v-103q109 129 283 129t288 -128q113 -128 113 -337v-616h-270v616z" />
    <glyph glyph-name="o" unicode="o" horiz-adv-x="1185" 
d="M592 223q108 0 184 85t76 218t-76 220q-76 88 -184 88t-184 -88t-76 -220q0 -133 76 -218t184 -85zM592 1081q221 1 377 -159q155 -160 155 -394t-156 -394q-156 -159 -376 -159q-221 0 -376 158q-155 157 -155 393t155 396t376 159z" />
    <glyph glyph-name="p" unicode="p" horiz-adv-x="1267" 
d="M666 229q114 0 192 86t78 214t-79 213t-191 85t-192 -87q-79 -87 -79 -211t79 -212t192 -88zM714 1079q200 0 346 -159t146 -391t-146 -392t-340 -160t-325 125v-571h-272v1524h260v-111q131 135 331 135z" />
    <glyph glyph-name="q" unicode="q" horiz-adv-x="1269" 
d="M874 529q0 124 -78 211q-79 87 -192 87q-114 0 -192 -85t-78 -213t79 -214t191 -86t192 88q78 88 78 212zM1145 1055v-1524h-271v571q-130 -125 -324 -125t-341 160t-147 392q0 231 146 391q148 160 346 160t333 -136v111h258z" />
    <glyph glyph-name="r" unicode="r" horiz-adv-x="745" 
d="M393 518v-518h-270v1055h258v-105q129 160 340 125v-262q-180 20 -260 -65q-68 -70 -68 -230z" />
    <glyph glyph-name="s" unicode="s" horiz-adv-x="1077" 
d="M1014 332q0 -156 -130 -256t-333 -100t-339 98q-136 100 -161 270h275q24 -61 90 -92t142 -31t130 25q53 26 53 70t-43 68q-44 24 -146 39q-276 40 -373 116q-40 31 -69 84q-30 53 -30 120q0 137 118 237t315 101q197 0 323 -90t151 -239h-280q-29 88 -177 88
q-86 0 -131 -26t-45 -62t49 -54q49 -20 160 -37t183 -37q181 -49 236 -151q32 -57 32 -141z" />
    <glyph glyph-name="t" unicode="t" horiz-adv-x="647" 
d="M143 444v371h-127v240h127v268h271v-268h190v-240h-190v-373q0 -108 50 -154t152 -40v-246q-225 -25 -349 97t-124 345z" />
    <glyph glyph-name="u" unicode="u" horiz-adv-x="1179" 
d="M1057 1055v-1055h-258v96q-103 -121 -279 -121t-291 128t-114 335v617h270v-617q1 -59 25 -111q46 -96 172 -96q90 -1 147 59t57 148v617h271z" />
    <glyph glyph-name="v" unicode="v" horiz-adv-x="1091" 
d="M1090 1055l-398 -1055h-291l-399 1055h283l262 -787l264 787h279z" />
    <glyph glyph-name="w" unicode="w" horiz-adv-x="1605" 
d="M1602 1055l-330 -1055h-279l-190 698l-191 -698h-280l-328 1055h287l184 -738l193 738h270l192 -738l185 738h287z" />
    <glyph glyph-name="x" unicode="x" horiz-adv-x="1050" 
d="M1051 0h-306l-219 358l-221 -358h-305l369 545l-346 510h307l196 -322l195 322h307l-346 -510z" />
    <glyph glyph-name="y" unicode="y" horiz-adv-x="1089" 
d="M1087 1055l-466 -1248q-72 -190 -186 -249t-300 -47v245q102 -6 157 25q54 31 87 121l31 80l-408 1073h287l258 -762l252 762h288z" />
    <glyph glyph-name="z" unicode="z" horiz-adv-x="1009" 
d="M965 244v-244h-922v233l557 578h-534v244h880v-242l-547 -569h566z" />
    <glyph glyph-name="braceleft" unicode="{" horiz-adv-x="684" 
d="M481 1272v-268q0 -225 -155 -297q156 -78 155 -299v-269q0 -80 39 -125t119 -39v-200q-190 -16 -296 72q-105 89 -105 282v256q0 223 -199 223v195q199 0 199 225v256q0 193 105 281q106 87 296 69v-198q-80 6 -119 -39t-39 -125z" />
    <glyph glyph-name="bar" unicode="|" horiz-adv-x="548" 
d="M410 0h-271v1524h271v-1524z" />
    <glyph glyph-name="braceright" unicode="}" horiz-adv-x="684" 
d="M645 803v-195q-199 0 -199 -223v-256q0 -193 -105 -282t-294 -72v200q78 -6 117 39t39 125v269q0 221 155 299q-156 72 -155 297v268q0 80 -39 125t-117 39v198q188 18 294 -70q105 -89 105 -280v-256q0 -225 199 -225z" />
    <glyph glyph-name="asciitilde" unicode="~" horiz-adv-x="882" 
d="M600 1251q-78 0 -172 38t-129 38q-72 0 -92 -84h-125q16 102 72 172t136 70q81 0 173 -38t125 -38q66 0 88 86h125q-15 -102 -69 -173t-132 -71z" />
    <glyph glyph-name="nbspace" unicode="&#xa0;" horiz-adv-x="630" 
 />
    <glyph glyph-name="exclamdown" unicode="&#xa1;" horiz-adv-x="587" 
d="M160 0v999h270v-999h-270zM160 1155v268h270v-268h-270z" />
    <glyph glyph-name="cent" unicode="&#xa2;" horiz-adv-x="1095" 
d="M565 850q-113 0 -185 -89t-72 -241t100 -241l174 571h-17zM561 -10q-45 0 -100 10l-68 -225h-139l82 268q-127 66 -201 196t-74 296q-1 233 141 389t359 155q31 0 88 -8l68 221h139l-80 -260q199 -98 258 -334h-248q-25 61 -79 107l-179 -584q25 -4 37 -4q78 0 137 44
t89 120h245q-41 -179 -168 -285t-307 -106z" />
    <glyph glyph-name="sterling" unicode="&#xa3;" horiz-adv-x="1142" 
d="M88 573v179h133q-82 125 -82 256q0 188 132 307t343 119t345 -126t135 -327h-254q0 97 -60 157t-164 60t-163 -53t-59 -133t31 -136q11 -22 35 -64t34 -60h299v-179h-242q4 -41 2 -65q0 -158 -131 -264l2 -2q127 59 305 -4q97 -31 155 -17t115 72l125 -197
q-197 -188 -462 -71q-111 51 -208 42t-202 -87l-148 208q98 50 160 134t62 172q0 49 -11 79h-227z" />
    <glyph glyph-name="currency" unicode="&#xa4;" horiz-adv-x="1343" 
d="M51 711v151h148q61 201 228 327t382 126q297 0 475 -203l-115 -184q-119 174 -352 174q-123 0 -221 -65t-147 -175h681l-94 -151h-628q-2 -15 -2 -47t4 -76h551l-95 -154h-411q49 -102 136 -162t195 -59q184 0 283 137h254q-70 -166 -207 -258t-335 -92q-197 0 -355 120
t-221 314h-154v154h121q-4 45 -4 71l2 52h-119z" />
    <glyph glyph-name="yen" unicode="&#xa5;" horiz-adv-x="1230" 
d="M1137 952v-151h-246l-115 -209h330v-154h-354v-438h-273v438h-354v154h330l-115 209h-246v151h164l-256 469h305l307 -608l310 608h305l-256 -469h164z" />
    <glyph glyph-name="section" unicode="&#xa7;" horiz-adv-x="1079" 
d="M782 696q0 53 -60 79t-162 43t-136 28q-121 -31 -121 -98q-1 -51 59 -80t132 -39q72 -11 109 -19q38 -8 56 -10q123 27 123 96zM944 303q0 -145 -110 -238t-300 -93q-192 0 -307 102t-114 262h235q0 -62 52 -106t136 -44t130 29q47 29 47 75t-44 70q-43 24 -217 55
q-174 29 -279 97t-105 214t143 235q-61 72 -61 186q4 137 113 226q110 89 287 89t281 -95t103 -249h-238q2 61 -42 94t-108 33q-64 1 -110 -25q-47 -26 -48 -71t36 -65q38 -20 198 -54q160 -33 232 -67q158 -74 158 -234t-129 -242q61 -72 61 -184z" />
    <glyph glyph-name="dieresis" unicode="&#xa8;" horiz-adv-x="854" 
d="M346 1233h-225v221h225v-221zM731 1233h-225v221h225v-221z" />
    <glyph glyph-name="copyright" unicode="&#xa9;" horiz-adv-x="1603" 
d="M424 716q0 166 110 280t256 114t243 -78t130 -205h-209q-47 94 -151 95q-74 0 -126 -60t-52 -145t52 -145t126 -60q102 0 149 92h209q-33 -125 -130 -204q-97 -78 -243 -78t-254 114q-110 114 -110 280zM803 168q223 0 380 161t156 388q0 227 -156 388q-157 161 -380 161
t-381 -161t-158 -388t158 -388t381 -161zM802 1456q306 0 523 -217t217 -523t-217 -523t-523 -217t-523 216q-217 218 -217 524t216 523q218 217 524 217z" />
    <glyph glyph-name="ordfeminine" unicode="&#xaa;" horiz-adv-x="782" 
d="M510 1055v57q-43 -25 -163 -38t-120 -75q0 -27 30 -43t79 -16q174 0 174 115zM63 1001q0 99 69 141q70 42 176 50t151 23t45 47q0 66 -115 65q-47 1 -88 -21t-51 -59h-162q12 93 93 151t187 58t168 -24q121 -49 126 -191v-330q0 -47 18 -102h-150q-12 33 -14 59
q-68 -72 -186 -72t-192 54q-75 53 -75 151z" />
    <glyph glyph-name="guillemotleft" unicode="&#xab;" horiz-adv-x="866" 
d="M47 715l324 278v-215l-205 -164l205 -168v-215l-324 281v203zM805 778l-205 -164l205 -168v-215l-324 281v203l324 278v-215z" />
    <glyph glyph-name="logicalnot" unicode="&#xac;" 
d="M365 846v-268h-271v268h271z" />
    <glyph glyph-name="registered" unicode="&#xae;" horiz-adv-x="1603" 
d="M725 758h147q80 0 80 86t-80 86h-147v-172zM725 580v-222h-201v756h361q129 0 201 -74t71 -196q0 -155 -135 -223l141 -263h-225l-111 222h-102zM1339 716q0 226 -156 388q-157 162 -380 162t-381 -162t-158 -388t158 -387t381 -161t380 161q156 161 156 387zM1542 716
q0 -306 -217 -523t-523 -217t-523 216q-217 218 -217 524t216 523q218 217 524 217t523 -217t217 -523z" />
    <glyph glyph-name="macron" unicode="&#xaf;" horiz-adv-x="825" 
d="M82 1219v178h661v-178h-661z" />
    <glyph glyph-name="macron" unicode="&#x2c9;" horiz-adv-x="825" 
d="M82 1219v178h661v-178h-661z" />
    <glyph glyph-name="degree" unicode="&#xb0;" horiz-adv-x="755" 
d="M377 944q65 0 111 47t46 111t-46 112t-112 48t-111 -48q-46 -48 -46 -112t46 -111t112 -47zM377 1417q131 0 223 -92t92 -222t-92 -222q-92 -93 -223 -93t-222 92t-91 223q0 130 90 222q92 92 223 92z" />
    <glyph glyph-name="twosuperior" unicode="&#xb2;" horiz-adv-x="749" 
d="M80 1112q0 129 82 221t224 92q142 1 219 -79t77 -190t-62 -172t-210 -141t-156 -147h426v-155h-612v73q0 135 70 217q71 83 191 147q121 64 153 101t32 83t-32 77t-95 31t-101 -44t-38 -114h-168z" />
    <glyph glyph-name="threesuperior" unicode="&#xb3;" horiz-adv-x="753" 
d="M688 803q0 -111 -86 -195t-236 -84t-231 84q-82 84 -86 213h170q0 -65 39 -103t110 -38q72 0 112 35t40 90q0 113 -143 113h-55v145h32q141 0 142 100q0 49 -32 78t-92 29t-94 -38t-34 -91h-168q0 121 81 203t218 81t211 -73t73 -168q0 -123 -112 -180q141 -43 141 -201z
" />
    <glyph glyph-name="acute" unicode="&#xb4;" horiz-adv-x="854" 
d="M684 1481l-295 -289h-199l191 289h303z" />
    <glyph glyph-name="mu" unicode="&#xb5;" 
d="M365 846v-268h-271v268h271z" />
    <glyph glyph-name="mu" unicode="&#x3bc;" 
d="M365 846v-268h-271v268h271z" />
    <glyph glyph-name="paragraph" unicode="&#xb6;" horiz-adv-x="1251" 
d="M1120 1421v-1421h-213v1217h-153v-1217h-213v508h-27q-209 0 -336 127t-127 333t124 330t345 123h600z" />
    <glyph glyph-name="periodcentered" unicode="&#xb7;" 
d="M365 846v-268h-271v268h271z" />
    <glyph glyph-name="periodcentered" unicode="&#x22c5;" 
d="M365 846v-268h-271v268h271z" />
    <glyph glyph-name="cedilla" unicode="&#xb8;" horiz-adv-x="630" 
d="M549 -275q0 -79 -69 -128q-68 -49 -182 -49t-216 81l35 74q72 -39 135 -47t98 12t35 66t-55 60q-55 15 -105 -11l-78 47l84 170h134l-84 -123q141 46 221 -29q48 -44 47 -123z" />
    <glyph glyph-name="onesuperior" unicode="&#xb9;" horiz-adv-x="526" 
d="M375 1421v-880h-168v614h-137v109q66 2 114 42t56 115h135z" />
    <glyph glyph-name="ordmasculine" unicode="&#xba;" horiz-adv-x="759" 
d="M381 942q66 0 111 51t45 131t-45 132t-111 52t-111 -52t-45 -132t45 -131t111 -51zM381 1456q133 0 225 -95t92 -237t-92 -235q-92 -94 -225 -94t-226 95t-93 235q0 139 92 235q94 96 227 96z" />
    <glyph glyph-name="guillemotright" unicode="&#xbb;" horiz-adv-x="864" 
d="M59 993l324 -278v-203l-324 -281v215l205 168l-205 164v215zM817 715v-203l-323 -281v215l204 168l-204 164v215z" />
    <glyph glyph-name="onequarter" unicode="&#xbc;" horiz-adv-x="1523" 
d="M1210 328v348l-217 -348h217zM1462 180h-94v-180h-158v180h-383v148l347 553h194v-553h94v-148zM1217 1421l-834 -1446h-172l833 1446h173zM207 541v614h-137v109q66 2 114 42t56 115h135v-880h-168z" />
    <glyph glyph-name="onehalf" unicode="&#xbd;" horiz-adv-x="1630" 
d="M1561 156v-156h-613v76q0 133 72 216t190 146q118 64 151 102q34 38 34 83t-31 75q-32 30 -96 31q-64 0 -102 -43t-38 -113h-167q0 127 81 220q82 92 224 92t220 -80q77 -81 77 -173t-39 -152t-85 -91t-141 -82q-155 -85 -163 -151h426zM1214 1421l-833 -1446h-172
l835 1446h170zM207 541v614h-137v109q66 2 114 42t56 115h133v-880h-166z" />
    <glyph glyph-name="threequarters" unicode="&#xbe;" horiz-adv-x="1736" 
d="M1425 328v348l-219 -348h219zM1675 180h-94v-180h-156v180h-385v148l346 553h195v-553h94v-148zM1430 1421l-834 -1446h-172l833 1446h173zM686 803q0 -113 -84 -196t-236 -83q-151 0 -233 84t-84 213h168q0 -65 40 -103t110 -38q71 0 111 35t40 90q0 113 -143 113h-56
v145h33q141 0 142 100q0 49 -32 78t-92 29t-94 -38t-34 -91h-168q0 121 81 203t218 81t211 -73t73 -168q0 -123 -112 -180q141 -43 141 -201z" />
    <glyph glyph-name="questiondown" unicode="&#xbf;" horiz-adv-x="1130" 
d="M795 438h266q0 -209 -133 -337q-132 -128 -356 -128t-351 116t-127 302q0 117 62 200t184 165q123 82 123 202v48h250v-48q0 -152 -68 -237t-148 -140q-79 -55 -107 -96t-28 -105t56 -111q56 -46 156 -46q101 1 161 61t60 154zM453 1161v269h272v-269h-272z" />
    <glyph glyph-name="Agrave" unicode="&#xc0;" horiz-adv-x="1366" 
d="M877 537l-199 583l-199 -583h398zM963 285h-568l-96 -285h-287l496 1421h342l496 -1421h-287zM324 1829h303l190 -289h-199z" />
    <glyph glyph-name="Aacute" unicode="&#xc1;" horiz-adv-x="1366" 
d="M877 537l-199 583l-199 -583h398zM963 285h-568l-96 -285h-287l496 1421h342l496 -1421h-287zM1034 1829l-295 -289h-198l190 289h303z" />
    <glyph glyph-name="Acircumflex" unicode="&#xc2;" horiz-adv-x="1366" 
d="M877 537l-199 583l-199 -583h398zM963 285h-568l-96 -285h-287l496 1421h342l496 -1421h-287zM553 1540h-223l227 291h244l225 -291h-221l-127 170z" />
    <glyph glyph-name="Atilde" unicode="&#xc3;" horiz-adv-x="1366" 
d="M877 537l-199 583l-199 -583h398zM963 285h-568l-96 -285h-287l496 1421h342l496 -1421h-287zM543 1796q65 0 157 -38t125 -38q66 0 88 86h125q-14 -102 -68 -173t-132 -71t-172 39q-94 38 -129 37q-72 0 -93 -84h-125q15 102 71 172t153 70z" />
    <glyph glyph-name="Adieresis" unicode="&#xc4;" horiz-adv-x="1366" 
d="M877 537l-199 583l-199 -583h398zM963 285h-568l-96 -285h-287l496 1421h342l496 -1421h-287zM360 1790h252v-227h-252v227zM745 1790h252v-227h-252v227z" />
    <glyph glyph-name="Aring" unicode="&#xc5;" horiz-adv-x="1366" 
d="M679 1640q40 0 69 30t28 71q0 41 -28 71t-69 29q-40 0 -69 -30q-28 -31 -28 -71t28 -70t69 -30zM877 537l-199 583l-199 -583h398zM963 285h-568l-96 -285h-287l496 1421h342l496 -1421h-287zM461 1740q1 90 65 154t153 64t152 -64t63 -153t-62 -153q-64 -64 -154 -64
t-154 63q-63 63 -63 153z" />
    <glyph glyph-name="AE" unicode="&#xc6;" horiz-adv-x="1976" 
d="M860 537v632h-164l-219 -632h383zM1915 252v-252h-1055v285h-465l-98 -285h-285l502 1421h1387v-252h-768v-303h651v-252h-651v-362h782z" />
    <glyph glyph-name="Ccedilla" unicode="&#xc7;" horiz-adv-x="1449" 
d="M977 -276q0 -78 -69 -127q-68 -49 -182 -49t-216 81l35 74q70 -39 133 -46t99 12t36 65t-55 60q-55 15 -105 -11l-80 47l76 154q-252 40 -417 246q-164 206 -164 502t198 511q199 215 490 215q240 0 410 -127t237 -346h-293q-53 101 -144 161t-210 60q-174 0 -296 -144
t-122 -346t122 -346t296 -145q117 0 209 62t145 164h291q-68 -215 -234 -343t-393 -133l-67 -96q143 47 223 -31q48 -46 47 -124z" />
    <glyph glyph-name="Egrave" unicode="&#xc8;" horiz-adv-x="1245" 
d="M1184 252v-252h-1053v1421h1038v-252h-768v-303h656v-252h-656v-362h783zM268 1829h303l191 -289h-199z" />
    <glyph glyph-name="Eacute" unicode="&#xc9;" horiz-adv-x="1245" 
d="M1184 252v-252h-1053v1421h1038v-252h-768v-303h656v-252h-656v-362h783zM1034 1829l-295 -289h-198l190 289h303z" />
    <glyph glyph-name="Ecircumflex" unicode="&#xca;" horiz-adv-x="1245" 
d="M1184 252v-252h-1053v1421h1038v-252h-768v-303h656v-252h-656v-362h783zM553 1540h-223l227 291h244l225 -291h-221l-127 170z" />
    <glyph glyph-name="Edieresis" unicode="&#xcb;" horiz-adv-x="1245" 
d="M1184 252v-252h-1053v1421h1038v-252h-768v-303h656v-252h-656v-362h783zM360 1790h252v-227h-252v227zM745 1790h252v-227h-252v227z" />
    <glyph glyph-name="Igrave" unicode="&#xcc;" horiz-adv-x="542" 
d="M408 1421v-1421h-271v1421h271zM-94 1829h303l190 -289h-198z" />
    <glyph glyph-name="Iacute" unicode="&#xcd;" horiz-adv-x="542" 
d="M408 1421v-1421h-271v1421h271zM647 1829l-295 -289h-198l190 289h303z" />
    <glyph glyph-name="Icircumflex" unicode="&#xce;" horiz-adv-x="542" 
d="M408 1421v-1421h-271v1421h271zM147 1540h-223l228 291h243l226 -291h-222l-127 170z" />
    <glyph glyph-name="Idieresis" unicode="&#xcf;" horiz-adv-x="542" 
d="M408 1421v-1421h-271v1421h271zM-39 1790h252v-227h-252v227zM346 1790h252v-227h-252v227z" />
    <glyph glyph-name="Eth" unicode="&#xd0;" horiz-adv-x="1415" 
d="M707 252q293 0 356 314q14 70 14 152t-16 156q-64 294 -354 295h-254v-260h333v-252h-333v-405h254zM1348 712q0 -328 -174 -520t-467 -192h-527v657h-149v252h149v512h527q297 0 469 -191t172 -518z" />
    <glyph glyph-name="Ntilde" unicode="&#xd1;" horiz-adv-x="1437" 
d="M1307 1421v-1421h-326l-580 1012v-1012h-270v1421h326l577 -1011v1011h273zM864 1747q70 0 101 86h112q-12 -106 -72 -176t-132 -70t-154 46t-121 46q-70 0 -100 -86h-111q9 109 69 177t132 69q72 0 155 -46q82 -46 121 -46z" />
    <glyph glyph-name="Ograve" unicode="&#xd2;" horiz-adv-x="1525" 
d="M340 716q0 -200 124 -342t299 -143q175 1 299 143t124 342t-124 342t-299 142t-299 -142t-124 -342zM764 1456q299 0 497 -214q197 -214 197 -526t-197 -527q-198 -214 -497 -214t-498 214q-198 215 -198 527t198 526q199 214 498 214zM360 1829h304l190 -289h-199z" />
    <glyph glyph-name="Oacute" unicode="&#xd3;" horiz-adv-x="1525" 
d="M340 716q0 -200 124 -342t299 -143q175 1 299 143t124 342t-124 342t-299 142t-299 -142t-124 -342zM764 1456q299 0 497 -214q197 -214 197 -526t-197 -527q-198 -214 -497 -214t-498 214q-198 215 -198 527t198 526q199 214 498 214zM1147 1829l-295 -289h-199l191 289
h303z" />
    <glyph glyph-name="Ocircumflex" unicode="&#xd4;" horiz-adv-x="1525" 
d="M340 716q0 -200 124 -342t299 -143q175 1 299 143t124 342t-124 342t-299 142t-299 -142t-124 -342zM764 1456q299 0 497 -214q197 -214 197 -526t-197 -527q-198 -214 -497 -214t-498 214q-198 215 -198 527t198 526q199 214 498 214zM639 1540h-223l227 291h244
l225 -291h-221l-127 170z" />
    <glyph glyph-name="Otilde" unicode="&#xd5;" horiz-adv-x="1525" 
d="M340 716q0 -200 124 -342t299 -143q175 1 299 143t124 342t-124 342t-299 142t-299 -142t-124 -342zM764 1456q299 0 497 -214q197 -214 197 -526t-197 -527q-198 -214 -497 -214t-498 214q-198 215 -198 527t198 526q199 214 498 214zM632 1796q81 0 173 -38t125 -38
q66 0 88 86h125q-15 -102 -69 -173t-132 -71t-172 39q-94 38 -129 37q-72 0 -92 -84h-125q16 102 72 172t136 70z" />
    <glyph glyph-name="Odieresis" unicode="&#xd6;" horiz-adv-x="1525" 
d="M340 716q0 -200 124 -342t299 -143q175 1 299 143t124 342t-124 342t-299 142t-299 -142t-124 -342zM764 1456q299 0 497 -214q197 -214 197 -526t-197 -527q-198 -214 -497 -214t-498 214q-198 215 -198 527t198 526q199 214 498 214zM453 1790h252v-227h-252v227z
M838 1790h252v-227h-252v227z" />
    <glyph glyph-name="multiply" unicode="&#xd7;" horiz-adv-x="1052" 
d="M891 10l-365 365l-364 -365l-142 142l365 366l-365 363l142 141l364 -365l365 365l141 -141l-364 -363l364 -366z" />
    <glyph glyph-name="Oslash" unicode="&#xd8;" horiz-adv-x="1525" 
d="M1126 963l-620 -629q116 -102 274 -102t282 142t124 343q-1 137 -60 246zM754 1200q-166 0 -290 -142t-124 -341q0 -147 70 -268l626 634q-116 117 -282 117zM1458 717q0 -313 -197 -528q-198 -214 -497 -214q-260 0 -449 166l-141 -145l-106 106l147 150
q-147 201 -147 465q0 311 198 525q200 214 484 214t477 -180l141 143l107 -104l-152 -152q135 -197 135 -446z" />
    <glyph glyph-name="Ugrave" unicode="&#xd9;" horiz-adv-x="1331" 
d="M1214 1421v-858q0 -276 -142 -432t-406 -156t-406 156q-141 156 -141 432v858h270v-866q1 -317 277 -317t276 317v866h272zM279 1829h303l190 -289h-199z" />
    <glyph glyph-name="Uacute" unicode="&#xda;" horiz-adv-x="1331" 
d="M1214 1421v-858q0 -276 -142 -432t-406 -156t-406 156q-141 156 -141 432v858h270v-866q1 -317 277 -317t276 317v866h272zM1067 1829l-295 -289h-199l191 289h303z" />
    <glyph glyph-name="Ucircumflex" unicode="&#xdb;" horiz-adv-x="1331" 
d="M1214 1421v-858q0 -276 -142 -432t-406 -156t-406 156q-141 156 -141 432v858h270v-866q1 -317 277 -317t276 317v866h272zM545 1540h-223l227 291h244l225 -291h-221l-127 170z" />
    <glyph glyph-name="Udieresis" unicode="&#xdc;" horiz-adv-x="1331" 
d="M1214 1421v-858q0 -276 -142 -432t-406 -156t-406 156q-141 156 -141 432v858h270v-866q1 -317 277 -317t276 317v866h272zM360 1790h252v-227h-252v227zM745 1790h252v-227h-252v227z" />
    <glyph glyph-name="Yacute" unicode="&#xdd;" horiz-adv-x="1218" 
d="M743 0h-270v545l-477 876h305l305 -602h6l306 602h305l-480 -876v-545zM1004 1829l-287 -297h-197l191 297h293z" />
    <glyph glyph-name="Thorn" unicode="&#xde;" horiz-adv-x="1249" 
d="M928 778q0 207 -201 207h-326v-414h326q201 0 201 207zM1198 783q0 -205 -128 -333t-337 -128h-332v-322h-270v1421h270v-184h328q221 0 345 -124t124 -330z" />
    <glyph glyph-name="germandbls" unicode="&#xdf;" horiz-adv-x="1208" 
d="M1147 440q0 -215 -126 -341t-335 -126q-104 0 -192 37v252q76 -31 175 -31q99 -1 153 59t54 152t-60 146t-154 55h-168v252h118q72 0 123 47t51 136q0 90 -51 140t-139 50t-144 -62t-57 -155v-1051h-272v1059q0 193 133 329t337 136t334 -124t130 -304t-135 -289
q109 -49 167 -145t58 -222z" />
    <glyph glyph-name="agrave" unicode="&#xe0;" horiz-adv-x="1191" 
d="M336 324q0 -105 204 -105q106 -1 186 47q81 48 81 144v98q-73 -48 -219 -64t-199 -43t-53 -77zM63 322q0 164 115 232q116 68 294 85q178 16 252 41t73 76t-53 80q-52 28 -136 28t-152 -35t-83 -98h-271q20 154 156 252t340 98q121 -1 211 -31t136 -71t80 -108t34 -150
v-549q0 -84 31 -172h-248q-16 37 -27 98q-113 -118 -308 -118t-320 89q-124 89 -124 253zM266 1481h301l191 -289h-199z" />
    <glyph glyph-name="aacute" unicode="&#xe1;" horiz-adv-x="1191" 
d="M336 324q0 -105 204 -105q106 -1 186 47q81 48 81 144v98q-73 -48 -219 -64t-199 -43t-53 -77zM63 322q0 164 115 232q116 68 294 85q178 16 252 41t73 76t-53 80q-52 28 -136 28t-152 -35t-83 -98h-271q20 154 156 252t340 98q121 -1 211 -31t136 -71t80 -108t34 -150
v-549q0 -84 31 -172h-248q-16 37 -27 98q-113 -118 -308 -118t-320 89q-124 89 -124 253zM938 1481l-295 -289h-199l191 289h303z" />
    <glyph glyph-name="acircumflex" unicode="&#xe2;" horiz-adv-x="1191" 
d="M336 324q0 -105 204 -105q106 -1 186 47q81 48 81 144v98q-73 -48 -219 -64t-199 -43t-53 -77zM63 322q0 164 115 232q116 68 294 85q178 16 252 41t73 76t-53 80q-52 28 -136 28t-152 -35t-83 -98h-271q20 154 156 252t340 98q121 -1 211 -31t136 -71t80 -108t34 -150
v-549q0 -84 31 -172h-248q-16 37 -27 98q-113 -118 -308 -118t-320 89q-124 89 -124 253zM725 1192l-127 170l-125 -170h-223l227 291h242l227 -291h-221z" />
    <glyph glyph-name="atilde" unicode="&#xe3;" horiz-adv-x="1191" 
d="M336 324q0 -105 204 -105q106 -1 186 47q81 48 81 144v98q-73 -48 -219 -64t-199 -43t-53 -77zM63 322q0 164 115 232q116 68 294 85q178 16 252 41t73 76t-53 80q-52 28 -136 28t-152 -35t-83 -98h-271q20 154 156 252t340 98q121 -1 211 -31t136 -71t80 -108t34 -150
v-549q0 -84 31 -172h-248q-16 37 -27 98q-113 -118 -308 -118t-320 89q-124 89 -124 253zM751 1214q-77 0 -171 38t-129 38q-72 0 -93 -84h-127q17 102 73 173t153 71q67 0 157 -39t123 -39q66 0 88 86h127q-14 -102 -69 -173t-132 -71z" />
    <glyph glyph-name="adieresis" unicode="&#xe4;" horiz-adv-x="1191" 
d="M336 324q0 -105 204 -105q106 -1 186 47q81 48 81 144v98q-73 -48 -219 -64t-199 -43t-53 -77zM63 322q0 164 115 232q116 68 294 85q178 16 252 41t73 76t-53 80q-52 28 -136 28t-152 -35t-83 -98h-271q20 154 156 252t340 98q121 -1 211 -31t136 -71t80 -108t34 -150
v-549q0 -84 31 -172h-248q-16 37 -27 98q-113 -118 -308 -118t-320 89q-124 89 -124 253zM276 1440h250v-228h-250v228zM662 1440h249v-228h-249v228z" />
    <glyph glyph-name="aring" unicode="&#xe5;" horiz-adv-x="1191" 
d="M595 1296q40 0 69 30q28 30 28 72t-28 72t-70 29q-41 0 -69 -30q-27 -29 -27 -71t28 -72t69 -30zM336 324q0 -105 204 -105q106 -1 186 47q81 48 81 144v98q-73 -48 -219 -64t-199 -43t-53 -77zM63 322q0 164 115 232q116 68 294 85q178 16 252 41t73 76t-53 80
q-52 28 -136 28t-152 -35t-83 -98h-271q20 154 156 252t340 98q121 -1 211 -31t136 -71t80 -108t34 -150v-549q0 -84 31 -172h-248q-16 37 -27 98q-113 -118 -308 -118t-320 89q-124 89 -124 253zM594 1614q90 0 154 -64t63 -153q0 -89 -63 -153q-64 -64 -154 -64t-154 63
q-63 63 -63 153q-1 90 63 154t154 64z" />
    <glyph glyph-name="ae" unicode="&#xe6;" horiz-adv-x="1939" 
d="M821 418v74q-76 -46 -224 -58q-147 -12 -209 -39t-62 -74t52 -75t162 -29q110 1 195 51q86 50 86 150zM1085 649h519q-29 86 -100 136q-71 51 -160 51q-88 0 -158 -50t-101 -137zM1341 221q147 0 226 115h286q-47 -164 -182 -262t-328 -99q-123 1 -231 53t-176 144
q-115 -193 -422 -192q-180 0 -315 90t-136 252q0 103 63 190q34 47 126 86q91 38 169 47t136 15t72 8t39 5t38 6t31 7q70 16 70 66q0 42 -55 68q-56 26 -136 26t-146 -27t-85 -88h-283q20 154 158 252t344 98q266 0 389 -137q147 137 350 137q246 0 404 -178t125 -481h-793
q27 -94 99 -148t163 -53z" />
    <glyph glyph-name="ccedilla" unicode="&#xe7;" horiz-adv-x="1169" 
d="M803 -234q0 -84 -51 -128t-150 -44t-184 87l37 63q57 -55 145 -55q37 0 62 17q24 17 24 46t-22 49q-23 21 -63 21t-69 -27l-73 49l69 136q-206 28 -336 182t-130 374t154 384q155 162 390 161q190 0 326 -101t184 -280h-291q-68 119 -219 119q-114 0 -192 -87t-78 -207
q0 -121 79 -205t191 -84q154 0 221 120h289q-45 -176 -176 -278t-319 -105l-50 -79q76 28 154 -8t78 -120z" />
    <glyph glyph-name="egrave" unicode="&#xe8;" horiz-adv-x="1198" 
d="M602 844q-94 0 -164 -54q-69 -55 -98 -147h524q-25 92 -96 147q-72 54 -166 54zM600 213q158 0 223 123h289q-47 -164 -182 -262t-343 -98t-367 160q-159 161 -159 390q0 228 159 392q160 164 394 164t391 -180q157 -179 128 -480h-797q27 -96 97 -153q71 -56 167 -56z
M221 1481h301l191 -289h-199z" />
    <glyph glyph-name="eacute" unicode="&#xe9;" horiz-adv-x="1198" 
d="M602 844q-94 0 -164 -54q-69 -55 -98 -147h524q-25 92 -96 147q-72 54 -166 54zM600 213q158 0 223 123h289q-47 -164 -182 -262t-343 -98t-367 160q-159 161 -159 390q0 228 159 392q160 164 394 164t391 -180q157 -179 128 -480h-797q27 -96 97 -153q71 -56 167 -56z
M1004 1481l-295 -289h-199l190 289h304z" />
    <glyph glyph-name="ecircumflex" unicode="&#xea;" horiz-adv-x="1198" 
d="M602 844q-94 0 -164 -54q-69 -55 -98 -147h524q-25 92 -96 147q-72 54 -166 54zM600 213q158 0 223 123h289q-47 -164 -182 -262t-343 -98t-367 160q-159 161 -159 390q0 228 159 392q160 164 394 164t391 -180q157 -179 128 -480h-797q27 -96 97 -153q71 -56 167 -56z
M727 1192l-127 170l-125 -170h-223l227 291h242l227 -291h-221z" />
    <glyph glyph-name="edieresis" unicode="&#xeb;" horiz-adv-x="1198" 
d="M602 844q-94 0 -164 -54q-69 -55 -98 -147h524q-25 92 -96 147q-72 54 -166 54zM600 213q158 0 223 123h289q-47 -164 -182 -262t-343 -98t-367 160q-159 161 -159 390q0 228 159 392q160 164 394 164t391 -180q157 -179 128 -480h-797q27 -96 97 -153q71 -56 167 -56z
M283 1440h249v-228h-249v228zM668 1440h250v-228h-250v228z" />
    <glyph glyph-name="igrave" unicode="&#xec;" horiz-adv-x="530" 
d="M399 1055v-1055h-270v1055h270zM-94 1481h301l190 -289h-198z" />
    <glyph glyph-name="iacute" unicode="&#xed;" horiz-adv-x="530" 
d="M399 1055v-1055h-270v1055h270zM635 1481l-295 -289h-199l191 289h303z" />
    <glyph glyph-name="icircumflex" unicode="&#xee;" horiz-adv-x="530" 
d="M399 1055v-1055h-270v1055h270zM393 1192l-127 170l-125 -170h-223l227 291h242l227 -291h-221z" />
    <glyph glyph-name="idieresis" unicode="&#xef;" horiz-adv-x="530" 
d="M399 1055v-1055h-270v1055h270zM-47 1440h250v-228h-250v228zM338 1440h250v-228h-250v228z" />
    <glyph glyph-name="eth" unicode="&#xf0;" horiz-adv-x="1202" 
d="M594 213q108 0 184 85q74 85 74 215t-75 216t-183 86t-184 -86q-74 -86 -74 -216t75 -215t183 -85zM1118 525q0 -241 -152 -399t-372 -157q-219 0 -373 157t-153 386q0 166 78 295q79 129 191 190t216 61t184 -34q-78 113 -188 197l-152 -111l-112 70l155 112
q-78 43 -141 64l201 151q61 -29 133 -73l127 94l112 -70l-135 -100q185 -154 283 -373t98 -460z" />
    <glyph glyph-name="ntilde" unicode="&#xf1;" horiz-adv-x="1181" 
d="M795 616q1 212 -211 210q-76 0 -133 -60q-57 -59 -58 -150v-616h-270v1055h258v-103q109 129 283 129t288 -128q113 -128 113 -337v-616h-270v616zM768 1214q-76 0 -172 38q-94 38 -129 38q-72 0 -92 -84h-127q16 102 72 173t138 71q81 0 172 -39t124 -39q66 0 88 86h127
q-13 -102 -69 -173t-132 -71z" />
    <glyph glyph-name="ograve" unicode="&#xf2;" horiz-adv-x="1185" 
d="M592 223q108 0 184 85t76 218t-76 220q-76 88 -184 88t-184 -88t-76 -220q0 -133 76 -218t184 -85zM592 1081q221 1 377 -159q155 -160 155 -394t-156 -394q-156 -159 -376 -159q-221 0 -376 158q-155 157 -155 393t155 396t376 159zM207 1481h301l190 -289h-198z" />
    <glyph glyph-name="oacute" unicode="&#xf3;" horiz-adv-x="1185" 
d="M592 223q108 0 184 85t76 218t-76 220q-76 88 -184 88t-184 -88t-76 -220q0 -133 76 -218t184 -85zM592 1081q221 1 377 -159q155 -160 155 -394t-156 -394q-156 -159 -376 -159q-221 0 -376 158q-155 157 -155 393t155 396t376 159zM995 1481l-295 -289h-198l190 289
h303z" />
    <glyph glyph-name="ocircumflex" unicode="&#xf4;" horiz-adv-x="1185" 
d="M592 223q108 0 184 85t76 218t-76 220q-76 88 -184 88t-184 -88t-76 -220q0 -133 76 -218t184 -85zM592 1081q221 1 377 -159q155 -160 155 -394t-156 -394q-156 -159 -376 -159q-221 0 -376 158q-155 157 -155 393t155 396t376 159zM727 1192l-127 170l-125 -170h-223
l227 291h242l227 -291h-221z" />
    <glyph glyph-name="otilde" unicode="&#xf5;" horiz-adv-x="1185" 
d="M592 223q108 0 184 85t76 218t-76 220q-76 88 -184 88t-184 -88t-76 -220q0 -133 76 -218t184 -85zM592 1081q221 1 377 -159q155 -160 155 -394t-156 -394q-156 -159 -376 -159q-221 0 -376 158q-155 157 -155 393t155 396t376 159zM751 1214q-77 0 -171 38t-129 38
q-72 0 -93 -84h-127q17 102 73 173t153 71q67 0 157 -39t123 -39q66 0 88 86h127q-14 -102 -69 -173t-132 -71z" />
    <glyph glyph-name="odieresis" unicode="&#xf6;" horiz-adv-x="1185" 
d="M592 223q108 0 184 85t76 218t-76 220q-76 88 -184 88t-184 -88t-76 -220q0 -133 76 -218t184 -85zM592 1081q221 1 377 -159q155 -160 155 -394t-156 -394q-156 -159 -376 -159q-221 0 -376 158q-155 157 -155 393t155 396t376 159zM276 1440h250v-228h-250v228z
M662 1440h249v-228h-249v228z" />
    <glyph glyph-name="divide" unicode="&#xf7;" 
d="M365 846v-268h-271v268h271z" />
    <glyph glyph-name="oslash" unicode="&#xf8;" horiz-adv-x="1185" 
d="M858 524q0 76 -31 138l-378 -383q68 -47 161 -47q92 0 170 85q78 86 78 207zM594 823q-110 0 -188 -87t-78 -212q-1 -70 28 -131l379 383q-68 47 -141 47zM1124 524q0 -227 -156 -389t-374 -162q-184 0 -330 119l-94 -94l-102 102l96 99q-102 150 -103 325q0 230 156 394
t377 163q180 0 326 -118l94 94l104 -101l-98 -100q104 -148 104 -332z" />
    <glyph glyph-name="ugrave" unicode="&#xf9;" horiz-adv-x="1179" 
d="M1057 1055v-1055h-258v96q-103 -121 -279 -121t-291 128t-114 335v617h270v-617q1 -59 25 -111q46 -96 172 -96q90 -1 147 59t57 148v617h271zM213 1481h301l191 -289h-199z" />
    <glyph glyph-name="uacute" unicode="&#xfa;" horiz-adv-x="1179" 
d="M1057 1055v-1055h-258v96q-103 -121 -279 -121t-291 128t-114 335v617h270v-617q1 -59 25 -111q46 -96 172 -96q90 -1 147 59t57 148v617h271zM995 1481l-295 -289h-198l190 289h303z" />
    <glyph glyph-name="ucircumflex" unicode="&#xfb;" horiz-adv-x="1179" 
d="M1057 1055v-1055h-258v96q-103 -121 -279 -121t-291 128t-114 335v617h270v-617q1 -59 25 -111q46 -96 172 -96q90 -1 147 59t57 148v617h271zM713 1192l-127 170l-125 -170h-223l227 291h242l227 -291h-221z" />
    <glyph glyph-name="udieresis" unicode="&#xfc;" horiz-adv-x="1179" 
d="M1057 1055v-1055h-258v96q-103 -121 -279 -121t-291 128t-114 335v617h270v-617q1 -59 25 -111q46 -96 172 -96q90 -1 147 59t57 148v617h271zM274 1440h250v-228h-250v228zM659 1440h250v-228h-250v228z" />
    <glyph glyph-name="yacute" unicode="&#xfd;" horiz-adv-x="1091" 
d="M1090 1055l-469 -1248q-74 -196 -198 -257q-97 -48 -251 -42v248q78 -4 120 27t77 119l34 98l-401 1055h289l250 -707h6l252 707h291zM956 1528l-284 -295h-201l191 295h294z" />
    <glyph glyph-name="thorn" unicode="&#xfe;" horiz-adv-x="1277" 
d="M676 229q114 0 192 86t78 213t-79 213t-191 86t-192 -87q-78 -87 -78 -211t78 -212t192 -88zM728 1079q196 0 342 -159t147 -391q-1 -232 -147 -392t-342 -160t-322 125v-571h-273v1890h273v-465q126 123 322 123z" />
    <glyph glyph-name="ydieresis" unicode="&#xff;" horiz-adv-x="1089" 
d="M1087 1055l-466 -1248q-72 -190 -186 -249t-300 -47v245q102 -6 157 25q54 31 87 121l31 80l-408 1073h287l258 -762l252 762h288zM221 1440h250v-228h-250v228zM606 1440h250v-228h-250v228z" />
    <glyph glyph-name="dotlessi" unicode="&#x131;" horiz-adv-x="530" 
d="M399 1055v-1055h-270v1055h270z" />
    <glyph glyph-name="Lslash" unicode="&#x141;" horiz-adv-x="1222" 
d="M1188 252v-252h-979v532l-178 -106v192l178 107v696h270v-532l277 166v-193l-277 -166v-444h709z" />
    <glyph glyph-name="lslash" unicode="&#x142;" horiz-adv-x="686" 
d="M479 0h-270v532l-178 -106v192l178 107v696h270v-532l176 106v-192l-176 -107v-696z" />
    <glyph glyph-name="OE" unicode="&#x152;" horiz-adv-x="2299" 
d="M760 1200q-172 0 -297 -142t-125 -341t125 -342t297 -143t294 134q122 136 130 326v47q-8 189 -130 325t-294 136zM1454 252h784v-252h-1054v139q-170 -164 -420 -164q-301 0 -499 214q-197 215 -197 527t197 526q198 214 499 214q250 0 420 -164v129h1038v-252h-768
v-303h655v-252h-655v-362z" />
    <glyph glyph-name="oe" unicode="&#x153;" horiz-adv-x="1978" 
d="M854 526q0 121 -77 207t-184 86t-184 -86t-77 -206q0 -121 76 -205t184 -84t186 84q76 84 76 204zM1122 649h518q-27 86 -98 136q-72 51 -161 51t-159 -50t-100 -137zM1378 221q147 0 228 115h284q-47 -164 -181 -262t-327 -99q-121 -1 -227 51t-176 140
q-61 -88 -163 -139t-224 -52q-219 0 -375 161t-156 390q0 228 156 392t375 163q121 0 223 -52t164 -142q70 90 176 142t227 52q246 0 404 -178t125 -481h-795q27 -94 98 -148q72 -53 164 -53z" />
    <glyph glyph-name="Scaron" unicode="&#x160;" horiz-adv-x="1327" 
d="M659 1456q135 0 241 -41q195 -75 270 -257q34 -81 34 -167h-270q0 91 -75 153t-196 62t-201 -43t-79 -118q0 -75 71 -113t212 -67q141 -28 218 -48q181 -47 273 -139t90 -256q0 -205 -161 -327t-429 -122q-216 0 -394 120q-85 59 -136 157t-51 221h270q0 -117 96 -183
t221 -65q125 0 220 47q94 47 94 144q0 72 -74 118q-75 46 -227 74q-152 30 -232 54t-162 71q-168 96 -169 313q0 184 149 298t397 114zM1010 1882l-226 -291h-243l-228 291h224l125 -170l126 170h222z" />
    <glyph glyph-name="scaron" unicode="&#x161;" horiz-adv-x="1077" 
d="M1014 332q0 -158 -130 -258t-333 -100t-339 100t-161 270h275q26 -59 92 -91t140 -32t134 28q60 27 60 69t-47 67t-152 40q-280 40 -374 115q-40 32 -69 84q-30 52 -30 119q0 137 118 237t315 101q197 0 323 -90t151 -239h-280q-15 36 -61 62t-125 26t-128 -26t-49 -62
t52 -54t165 -36t185 -38q181 -49 236 -151q32 -57 32 -141zM905 1516l-225 -289h-244l-227 289h223l125 -168l127 168h221z" />
    <glyph glyph-name="Ydieresis" unicode="&#x178;" horiz-adv-x="1218" 
d="M745 0h-272v545l-477 876h305l307 -608l310 608h305l-478 -876v-545zM305 1790h252v-227h-252v227zM690 1790h252v-227h-252v227z" />
    <glyph glyph-name="Zcaron" unicode="&#x17d;" horiz-adv-x="1216" 
d="M387 252h776v-252h-1112v242l758 921v6h-731v252h1065v-239l-756 -924v-6zM987 1882l-227 -291h-242l-227 291h221l127 -170l125 170h223z" />
    <glyph glyph-name="zcaron" unicode="&#x17e;" horiz-adv-x="1009" 
d="M414 254h551v-254h-922v233l541 562v6h-518v254h880v-242l-532 -553v-6zM862 1516l-225 -289h-244l-227 289h223l125 -168l127 168h221z" />
    <glyph glyph-name="florin" unicode="&#x192;" horiz-adv-x="962" 
d="M823 932v-152h-205l-96 -446q-43 -205 -179 -286t-335 -25v225q121 -29 193 5t96 157l78 370h-172v152h205l32 155q45 207 181 288t333 24v-225q-118 28 -190 -6t-98 -154l-17 -82h174z" />
    <glyph glyph-name="circumflex" unicode="&#x2c6;" horiz-adv-x="854" 
d="M549 1192l-127 170l-125 -170h-223l227 291h242l227 -291h-221z" />
    <glyph glyph-name="caron" unicode="&#x2c7;" horiz-adv-x="860" 
d="M778 1483l-227 -291h-242l-227 291h221l127 -170l125 170h223z" />
    <glyph glyph-name="breve" unicode="&#x2d8;" horiz-adv-x="798" 
d="M400 1210q-136 0 -222 76t-96 195h141q17 -55 63 -89t114 -34t115 34q46 34 60 89h142q-10 -119 -96 -195q-85 -76 -221 -76z" />
    <glyph glyph-name="dotaccent" unicode="&#x2d9;" horiz-adv-x="415" 
d="M82 1440h252v-228h-252v228z" />
    <glyph glyph-name="ring" unicode="&#x2da;" horiz-adv-x="604" 
d="M303 1315q41 0 70 30q29 31 29 71t-29 70t-70 30t-70 -30t-29 -71t30 -71q28 -30 69 -29zM303 1634q90 0 154 -64q63 -65 63 -154q0 -90 -63 -154t-153 -64t-154 65t-64 153t64 154q64 64 153 64z" />
    <glyph glyph-name="ogonek" unicode="&#x2db;" horiz-adv-x="509" 
d="M428 -276v-127q-86 -57 -185 -49t-141 83q-54 121 36 246q52 72 143 123h139q-102 -66 -148 -139q-45 -74 -18 -125q16 -37 70 -40t104 28z" />
    <glyph glyph-name="tilde" unicode="&#x2dc;" horiz-adv-x="854" 
d="M583 1214q-77 0 -171 38t-129 38q-72 0 -93 -84h-127q17 102 73 173t153 71q67 0 157 -39t123 -39q66 0 88 86h127q-14 -102 -69 -173t-132 -71z" />
    <glyph glyph-name="hungarumlaut" unicode="&#x2dd;" horiz-adv-x="933" 
d="M477 1481l-227 -289h-168l135 289h260zM852 1481l-225 -289h-168l135 289h258z" />
    <glyph glyph-name="Delta" unicode="&#x394;" 
d="M365 846v-268h-271v268h271z" />
    <glyph glyph-name="Omega" unicode="&#x3a9;" 
d="M365 846v-268h-271v268h271z" />
    <glyph glyph-name="pi" unicode="&#x3c0;" 
d="M365 846v-268h-271v268h271z" />
    <glyph glyph-name="endash" unicode="&#x2013;" horiz-adv-x="1241" 
d="M63 442v252h1115v-252h-1115z" />
    <glyph glyph-name="emdash" unicode="&#x2014;" horiz-adv-x="1947" 
d="M63 442v252h1821v-252h-1821z" />
    <glyph glyph-name="quoteleft" unicode="&#x2018;" horiz-adv-x="415" 
d="M346 1120v-258h-276v277q0 127 68 199t181 85v-114q-119 -27 -118 -164v-25h145z" />
    <glyph glyph-name="quoteright" unicode="&#x2019;" horiz-adv-x="415" 
d="M346 1421v-276q0 -125 -68 -199t-182 -84v115q119 25 119 164v22h-145v258h276z" />
    <glyph glyph-name="quotesinglbase" unicode="&#x201a;" horiz-adv-x="409" 
d="M346 260v-276q0 -125 -68 -199t-182 -84v115q119 25 119 164v22h-145v258h276z" />
    <glyph glyph-name="quotedblleft" unicode="&#x201c;" horiz-adv-x="872" 
d="M201 1120h145v-258h-276v277q0 127 68 199t181 85v-114q-119 -27 -118 -164v-25zM803 1120v-258h-277v277q0 127 69 199t181 85v-114q-119 -27 -119 -164v-25h146z" />
    <glyph glyph-name="quotedblright" unicode="&#x201d;" horiz-adv-x="872" 
d="M70 1421h276v-276q0 -125 -68 -199t-182 -84v115q119 25 119 164v22h-145v258zM803 1421v-276q0 -125 -69 -199t-181 -84v115q119 25 119 164v22h-146v258h277z" />
    <glyph glyph-name="quotedblbase" unicode="&#x201e;" horiz-adv-x="866" 
d="M70 258h276v-276q0 -125 -68 -199t-182 -84v115q119 25 119 163v23h-145v258zM803 258v-276q0 -125 -69 -199t-181 -84v115q119 25 119 163v23h-146v258h277z" />
    <glyph glyph-name="dagger" unicode="&#x2020;" horiz-adv-x="796" 
d="M719 963h-213v-555h-217v555h-211v202h211v256h217v-256h213v-202z" />
    <glyph glyph-name="daggerdbl" unicode="&#x2021;" horiz-adv-x="796" 
d="M506 963v-271h213v-203h-213v-256h-217v256h-211v203h211v271h-211v202h211v256h217v-256h213v-202h-213z" />
    <glyph glyph-name="bullet" unicode="&#x2022;" horiz-adv-x="641" 
d="M321 528q-91 0 -155 64t-64 154q0 92 64 155t154 63t154 -64t65 -154t-63 -154t-155 -64z" />
    <glyph glyph-name="ellipsis" unicode="&#x2026;" horiz-adv-x="1769" 
d="M385 289v-289h-291v289h291zM1030 289v-289h-291v289h291zM1675 289v-289h-291v289h291z" />
    <glyph glyph-name="perthousand" unicode="&#x2030;" horiz-adv-x="2439" 
d="M2038 522q-64 0 -110 -48t-46 -116t46 -116t110 -47q64 0 109 48q46 47 46 115t-46 116t-109 48zM2038 0q-152 0 -255 104t-104 254t103 254t256 104t255 -104t103 -254t-103 -254t-255 -104zM1231 522q-63 0 -109 -48t-47 -116q0 -68 46 -116q45 -48 109 -47
q64 0 110 48q46 47 46 115t-46 116t-109 48zM403 899q63 0 110 48q46 48 46 116t-46 116q-45 48 -109 48t-109 -48t-45 -116t45 -116t108 -48zM1231 0q-152 0 -255 104t-104 254q0 150 104 254t255 104q152 0 255 -104t103 -254t-103 -254t-255 -104zM317 0l781 1421h219
l-780 -1421h-220zM403 1421q152 0 255 -104q104 -104 104 -254t-104 -253t-255 -103q-152 0 -255 104t-103 253t103 253t255 104z" />
    <glyph glyph-name="guilsinglleft" unicode="&#x2039;" horiz-adv-x="430" 
d="M47 715l324 278v-215l-205 -164l205 -168v-215l-324 281v203z" />
    <glyph glyph-name="guilsinglright" unicode="&#x203a;" horiz-adv-x="430" 
d="M385 715v-203l-326 -281v215l205 168l-205 164v215z" />
    <glyph glyph-name="Euro" unicode="&#x20ac;" horiz-adv-x="1343" 
d="M51 711v151h148q61 201 228 327t382 126q297 0 475 -203l-115 -184q-119 174 -352 174q-123 0 -221 -65t-147 -175h681l-94 -151h-628q-2 -15 -2 -47t4 -76h551l-95 -154h-411q49 -102 136 -162t195 -59q184 0 283 137h254q-70 -166 -207 -258t-335 -92q-197 0 -355 120
t-221 314h-154v154h121q-4 45 -4 71l2 52h-119z" />
    <glyph glyph-name="trademark" unicode="&#x2122;" horiz-adv-x="1884" 
d="M72 1421h649v-190h-223v-703h-203v703h-223v190zM1782 1421v-893h-195v541l-178 -541h-213l-176 539v-539h-195v893h260l218 -649l219 649h260z" />
    <glyph glyph-name="partialdiff" unicode="&#x2202;" 
d="M365 846v-268h-271v268h271z" />
    <glyph glyph-name="product" unicode="&#x220f;" 
d="M365 846v-268h-271v268h271z" />
    <glyph glyph-name="summation" unicode="&#x2211;" 
d="M365 846v-268h-271v268h271z" />
    <glyph glyph-name="fraction" unicode="&#x2215;" 
d="M365 846v-268h-271v268h271z" />
    <glyph glyph-name="radical" unicode="&#x221a;" 
d="M365 846v-268h-271v268h271z" />
    <glyph glyph-name="integral" unicode="&#x222b;" 
d="M365 846v-268h-271v268h271z" />
    <glyph glyph-name="approxequal" unicode="&#x2248;" 
d="M365 846v-268h-271v268h271z" />
    <glyph glyph-name="lessequal" unicode="&#x2264;" 
d="M365 846v-268h-271v268h271z" />
    <glyph glyph-name="greaterequal" unicode="&#x2265;" 
d="M365 846v-268h-271v268h271z" />
    <glyph glyph-name="lozenge" unicode="&#x25ca;" 
d="M365 846v-268h-271v268h271z" />
    <glyph glyph-name="apple" unicode="&#xf8ff;" horiz-adv-x="1851" 
d="M1559 283q-86 53 -177 86q-76 -199 -208 -306q229 46 385 220zM1090 63q158 86 247 320q-109 33 -247 39v-359zM1718 688h-276q-2 -137 -43 -274q94 -31 190 -95q123 160 129 369zM1090 688v-217q143 -6 262 -43q41 127 43 260h-305zM1090 735h305q-2 131 -43 258
q-125 -35 -262 -41v-217zM1399 1008q41 -133 43 -273h276q-6 205 -129 369q-92 -61 -190 -96zM1090 999q143 10 247 41q-88 229 -247 320v-361zM1174 1360q133 -106 208 -305q90 33 177 86q-156 174 -385 219zM793 1421h188v-256h-188q-197 0 -318 -132t-121 -322
q0 -191 121 -323t318 -132h188v-256h-188q-313 0 -511 208t-198 503t198 503t511 207zM1767 711q0 -207 -104 -371t-263 -248t-335 -90l-25 -2v1423l25 -2q176 -6 335 -90q159 -85 263 -249t104 -371z" />
    <glyph glyph-name="CR" horiz-adv-x="630" 
 />
    </font>
</defs>
</svg>
