<?xml version="1.0" standalone="no"?>
<!DOCTYPE svg PUBLIC "-//W3C//DTD SVG 1.1//EN" "http://www.w3.org/Graphics/SVG/1.1/DTD/svg11.dtd" >
<svg xmlns="http://www.w3.org/2000/svg">
<metadata>
Created by FontPrep 20130207 at Mon Mar 23 10:16:15 2015
 By Miles Ryan
(C)2000 House Industries/Brand Design Co., Inc.
</metadata>
<defs>
<font id="eec5d8c6ec7753b76671d1e6b8e3d00c" horiz-adv-x='1024' >
  <font-face 
    font-family="Chalet-LondonNineteenSixty"
    font-weight="400"
    font-stretch="normal"
    units-per-em="2048"
    panose-1="2 0 0 0 0 0 0 0 0 0"
    ascent="1638"
    descent="-410"
    x-height="1055"
    cap-height="1421"
    bbox="-96 -518 2418 1964"
    underline-thickness="16"
    underline-position="-104"
    unicode-range="U+0020-FB02"
  />
<missing-glyph horiz-adv-x="1024" 
 />
    <glyph glyph-name="ffl" unicode="ffl" horiz-adv-x="1636" 
d="M1483 1524v-1524h-172v1524h172zM737 885h-383v-885h-172v885h-143v166h143v41q0 232 116 338t300 83v-157q-120 8 -182 -50t-62 -214v-41h383v41q0 232 116 338t300 83v-157q-119 8 -181 -50t-63 -214v-41h240v-166h-240v-885h-172v885z" />
    <glyph glyph-name="ffi" unicode="ffi" horiz-adv-x="1615" 
d="M909 885v-885h-172v885h-383v-885h-172v885h-143v166h143v41q0 232 116 338t300 83v-157q-120 8 -182 -50t-62 -214v-41h383v41q0 232 116 338t300 83v-157q-119 8 -181 -50t-63 -214v-41h555v-1051h-172v885h-383zM1464 1421v-207h-172v207h172z" />
    <glyph glyph-name="ff" unicode="ff" horiz-adv-x="1181" 
d="M737 885h-383v-885h-172v885h-143v166h143v41q0 232 116 338t300 83v-157q-120 8 -182 -50t-62 -214v-41h383v41q0 232 116 338t300 83v-157q-119 8 -181 -50t-63 -214v-41h240v-166h-240v-885h-172v885z" />
    <glyph glyph-name="fi" unicode="fi" horiz-adv-x="1060" 
d="M737 885h-383v-885h-172v885h-143v166h143v41q0 232 116 338t300 83v-157q-120 8 -182 -50t-62 -214v-41h555v-1051h-172v885zM909 1421v-207h-172v207h172z" />
    <glyph glyph-name="fl" unicode="fl" horiz-adv-x="1081" 
d="M354 1092v-41h240v-166h-240v-885h-172v885h-143v166h143v41q0 232 116 338t300 83v-157q-120 8 -182 -50t-62 -214zM928 1524v-1524h-172v1524h172z" />
    <glyph glyph-name=".notdef" horiz-adv-x="1024" 
 />
    <glyph glyph-name=".notdef" horiz-adv-x="1024" 
 />
    <glyph glyph-name=".null" horiz-adv-x="0" 
 />
    <glyph glyph-name="nonmarkingreturn" horiz-adv-x="681" 
 />
    <glyph glyph-name="space" unicode=" " horiz-adv-x="604" 
 />
    <glyph glyph-name="exclam" unicode="!" horiz-adv-x="555" 
d="M375 203v-203h-195v203h195zM365 1421v-1059h-175v1059h175z" />
    <glyph glyph-name="quotedbl" unicode="&#x22;" horiz-adv-x="649" 
d="M258 1421l-29 -510h-106l-29 510h164zM555 1421l-29 -510h-106l-29 510h164z" />
    <glyph glyph-name="numbersign" unicode="#" horiz-adv-x="1089" 
d="M713 918h-275l-59 -420h272zM879 918l-62 -420h174l-22 -162h-174l-39 -260h-166l37 260h-273l-39 -260h-165l38 260h-176l25 162h174l61 420h-174l23 161h176l37 267h168l-39 -267h272l39 267h168l-39 -267h174l-24 -161h-174z" />
    <glyph glyph-name="dollar" unicode="$" horiz-adv-x="1009" 
d="M770 446q0 70 -42 111t-175 74v-369q109 12 163 62q54 52 54 122zM248 1000q0 -62 42 -101t146 -68v332q-88 -12 -138 -57q-50 -44 -50 -106zM944 447q0 -162 -135 -263q-98 -78 -256 -90v-119h-117v119q-139 12 -241 90q-147 117 -148 314h172q0 -94 57 -158t160 -78
v393q-360 82 -360 334q0 141 98 233t262 109v125h117v-127q166 -17 262 -119t96 -256h-174q0 180 -184 209v-358q201 -45 296 -121t95 -237z" />
    <glyph glyph-name="percent" unicode="%" horiz-adv-x="1658" 
d="M1264 543q-78 -1 -134 -59t-57 -140q0 -82 56 -140q57 -58 135 -58t134 58t56 140t-56 140t-134 59zM395 879q78 0 133 58t56 140q0 83 -56 141t-133 58q-78 0 -134 -58t-56 -140t56 -141q56 -58 134 -58zM1264 0q-143 0 -244 100q-100 100 -100 244t100 244
q100 102 244 102t243 -101q101 -101 101 -245t-100 -244t-244 -100zM356 0l781 1421h166l-781 -1421h-166zM394 1421q142 0 244 -100q102 -99 101 -243q0 -144 -101 -244q-102 -100 -244 -100t-243 100t-102 243t101 243t244 101z" />
    <glyph glyph-name="ampersand" unicode="&#x26;" horiz-adv-x="1323" 
d="M600 139q181 0 287 113l-381 463q-123 -74 -177 -148q-55 -74 -55 -172t94 -177t232 -79zM754 1150q0 62 -42 104t-110 42t-114 -44t-46 -117q0 -72 70 -154l47 -57q111 63 153 113t42 113zM614 -25q-219 0 -367 123t-149 308q0 152 80 250t225 184l-24 30
q-115 134 -115 268t97 226t241 92t234 -85t90 -209t-68 -204t-199 -157l318 -385q20 76 20 145v109h168v-109q1 -164 -67 -291l221 -270h-223l-105 127q-158 -152 -377 -152z" />
    <glyph glyph-name="quotesingle" unicode="'" horiz-adv-x="352" 
d="M258 1421l-29 -510h-106l-29 510h164z" />
    <glyph glyph-name="parenleft" unicode="(" horiz-adv-x="643" 
d="M307 688q0 -518 311 -926h-153q-156 162 -251 413t-95 514t95 515t251 414h153q-311 -412 -311 -930z" />
    <glyph glyph-name="parenright" unicode=")" horiz-adv-x="643" 
d="M524 689q0 -263 -95 -514t-251 -413h-151q309 406 309 927t-309 929h151q156 -162 251 -414t95 -515z" />
    <glyph glyph-name="asterisk" unicode="*" horiz-adv-x="710" 
d="M657 1085l-206 2l108 -176l-104 -59l-99 182l-100 -182l-102 59l106 176l-207 -4v119l207 -4l-106 178l102 58l98 -181l101 181l104 -58l-108 -178l206 4v-117z" />
    <glyph glyph-name="plus" unicode="+" horiz-adv-x="1042" 
d="M958 481h-350v-352h-172v352h-350v168h350v352h172v-352h350v-168z" />
    <glyph glyph-name="comma" unicode="," 
d="M102 211h205v-258q0 -97 -56 -153t-134 -62v88q102 16 102 127v47h-117v211z" />
    <glyph glyph-name="hyphen" unicode="-" horiz-adv-x="735" 
d="M645 481h-555v168h555v-168z" />
    <glyph glyph-name="hyphen" unicode="&#xad;" horiz-adv-x="735" 
d="M645 481h-555v168h555v-168z" />
    <glyph glyph-name="period" unicode="." 
d="M307 211v-211h-205v211h205z" />
    <glyph glyph-name="slash" unicode="/" horiz-adv-x="561" 
d="M596 1524l-432 -1524h-172l430 1524h174z" />
    <glyph glyph-name="zero" unicode="0" horiz-adv-x="1230" 
d="M614 1296q-160 0 -254 -152t-94 -428q0 -275 94 -428t254 -153t254 153t95 429q-1 275 -95 427t-254 152zM614 -25q-229 -1 -374 191q-146 192 -146 550t146 550q146 190 375 190t375 -190t146 -548t-146 -551q-147 -192 -376 -192z" />
    <glyph glyph-name="one" unicode="1" horiz-adv-x="690" 
d="M268 1135h-209v135q209 6 224 151h159v-1421h-174v1135z" />
    <glyph glyph-name="two" unicode="2" horiz-adv-x="1142" 
d="M1040 168v-168h-968v88q0 229 138 365q70 69 138 115t172 104q215 116 285 190q69 74 69 179t-69 181q-69 74 -219 74t-228 -94t-82 -241h-178q2 211 131 353t349 142t346 -118q125 -118 125 -294q0 -94 -28 -166q-48 -123 -227 -240q-66 -42 -210 -123t-231 -163
t-97 -184h784z" />
    <glyph glyph-name="three" unicode="3" horiz-adv-x="1167" 
d="M1083 418q0 -188 -139 -316q-138 -128 -370 -127q-232 0 -361 123t-141 318h180q29 -279 323 -279q150 0 242 80t92 201q0 262 -350 262h-65v160q192 0 278 57t86 165t-71 172q-71 62 -209 62t-210 -81q-73 -81 -73 -201h-180q0 194 131 318t340 124q210 0 328 -110
t118 -279q0 -207 -176 -291q227 -86 227 -358z" />
    <glyph glyph-name="four" unicode="4" horiz-adv-x="1136" 
d="M764 502v655l-498 -655h498zM938 502h135v-168h-135v-334h-174v334h-717v153l707 934h184v-919z" />
    <glyph glyph-name="five" unicode="5" horiz-adv-x="1118" 
d="M590 946q202 0 328 -136t126 -351t-142 -349t-349 -134t-334 116q-127 117 -141 281h180q14 -96 92 -164t213 -68t222 90q87 89 87 231t-82 231q-83 89 -217 89q-85 0 -163 -44t-127 -117l-154 59l94 741h738v-166h-584l-53 -395q113 86 266 86z" />
    <glyph glyph-name="six" unicode="6" horiz-adv-x="1167" 
d="M922 468q0 150 -81 244t-219 95q-138 0 -231 -96q-94 -95 -94 -241t89 -240t229 -95q140 0 224 92q83 91 83 241zM621 969q207 1 341 -139t134 -360t-142 -357q-137 -137 -353 -137t-353 159q-154 177 -154 527t136 572t397 222q217 0 342 -147q78 -92 102 -228h-178
q-53 215 -266 215q-152 0 -244 -138t-111 -370q60 84 156 132t193 49z" />
    <glyph glyph-name="seven" unicode="7" horiz-adv-x="1040" 
d="M35 1253v168h954v-157q-244 -193 -392 -530t-169 -734h-176q16 367 148 707t345 546h-710z" />
    <glyph glyph-name="eight" unicode="8" horiz-adv-x="1134" 
d="M889 412q0 128 -89 206q-90 78 -232 78t-232 -79t-90 -205t96 -202q96 -75 225 -75t226 75q96 75 96 202zM567 1296q-117 0 -191 -62t-73 -162q0 -100 79 -160t185 -60t186 60q79 60 79 160t-74 162t-191 62zM1063 414q0 -182 -140 -310q-139 -128 -355 -129
q-216 0 -356 128t-140 311q0 117 57 213t158 153q-158 115 -158 286t123 281q124 109 316 109t315 -110t123 -280q0 -171 -158 -286q100 -57 158 -153t57 -213z" />
    <glyph glyph-name="nine" unicode="9" horiz-adv-x="1167" 
d="M877 959q-1 145 -89 241t-227 96t-224 -93t-85 -241t84 -242t225 -95q141 0 229 94q87 95 87 240zM1073 760q0 -373 -133 -579t-387 -206q-184 1 -300 97t-147 245h179q23 -76 91 -127t179 -51q313 0 350 502q-43 -76 -141 -125t-203 -49q-211 0 -347 139
q-136 140 -136 356t136 355t345 139q268 0 408 -227q106 -174 106 -469z" />
    <glyph glyph-name="colon" unicode=":" horiz-adv-x="464" 
d="M334 211v-211h-205v211h205zM334 1018v-211h-205v211h205z" />
    <glyph glyph-name="semicolon" unicode=";" horiz-adv-x="464" 
d="M129 211h205v-258q0 -97 -55 -153t-136 -62v88q102 16 103 127v47h-117v211zM334 1018v-211h-205v211h205z" />
    <glyph glyph-name="semicolon" unicode="&#x37e;" horiz-adv-x="464" 
d="M129 211h205v-258q0 -97 -55 -153t-136 -62v88q102 16 103 127v47h-117v211zM334 1018v-211h-205v211h205z" />
    <glyph glyph-name="less" unicode="&#x3c;" horiz-adv-x="929" 
d="M233 563l623 -268v-182l-793 358v188l793 357v-182l-623 -269v-2z" />
    <glyph glyph-name="equal" unicode="=" horiz-adv-x="991" 
d="M901 449v-166h-811v166h811zM901 682h-811v168h811v-168z" />
    <glyph glyph-name="greater" unicode="&#x3e;" horiz-adv-x="929" 
d="M696 563l-624 271v182l794 -357v-188l-794 -358v182z" />
    <glyph glyph-name="question" unicode="?" horiz-adv-x="1069" 
d="M592 203v-203h-197v203h197zM578 362h-168v56q0 161 74 251q42 49 71 75t103 84t110 104q35 47 35 121q0 113 -71 175t-205 62t-212 -70t-77 -184h-175q0 176 127 298t335 122t329 -112t121 -270q0 -157 -67 -236t-145 -135q-77 -55 -107 -83t-54 -80t-24 -122v-56z" />
    <glyph glyph-name="at" unicode="@" horiz-adv-x="1548" 
d="M806 969q-74 0 -152 -79q-76 -79 -102 -182q-26 -102 7 -164t111 -62t140 74q62 75 89 181q27 82 4 157t-97 75zM1085 475q92 0 163 98t71 250q0 205 -137 346t-377 141t-407 -180t-167 -430t159 -416q159 -165 413 -165q133 0 251 50t199 136h189q-98 -156 -266 -243
t-373 -87q-317 0 -521 204q-204 205 -204 525t216 536t512 216t481 -178t186 -461q0 -213 -121 -348t-272 -135t-193 133q-111 -133 -250 -133t-210 118t-21 284t167 273q119 105 246 105t176 -108l25 81h147l-155 -495q-16 -55 6 -86t67 -31z" />
    <glyph glyph-name="A" unicode="A" horiz-adv-x="1284" 
d="M870 575l-227 633l-231 -633h458zM928 414h-576l-151 -414h-189l537 1421h196l527 -1421h-195z" />
    <glyph glyph-name="B" unicode="B" horiz-adv-x="1310" 
d="M1051 414q0 246 -267 245h-444v-491h451q115 0 187 66t73 180zM340 1255v-430h444q92 -1 160 53t68 162q0 215 -234 215h-438zM1225 416q0 -178 -121 -297t-322 -119h-616v1421h612q188 0 298 -104t110 -279q0 -86 -45 -165t-133 -123q111 -39 164 -128t53 -206z" />
    <glyph glyph-name="C" unicode="C" horiz-adv-x="1488" 
d="M786 -25q-292 -1 -498 217t-206 524t207 523t497 217q238 0 410 -129t242 -344h-183q-61 139 -181 223t-288 84q-220 0 -376 -169t-156 -405t157 -404q157 -169 375 -169q156 0 280 82t189 226h183q-72 -217 -248 -347t-404 -129z" />
    <glyph glyph-name="D" unicode="D" horiz-adv-x="1417" 
d="M692 1255h-352v-1087h352q209 0 338 135t129 411t-129 408q-129 133 -338 133zM166 0v1421h526q297 0 471 -189t174 -519q0 -329 -175 -521t-470 -192h-526z" />
    <glyph glyph-name="E" unicode="E" horiz-adv-x="1269" 
d="M166 1421h1016v-166h-842v-430h760v-166h-760v-491h842v-168h-1016v1421z" />
    <glyph glyph-name="F" unicode="F" horiz-adv-x="1198" 
d="M340 1255v-430h713v-161h-713v-664h-174v1421h969v-166h-795z" />
    <glyph glyph-name="G" unicode="G" horiz-adv-x="1591" 
d="M799 774h680v-774h-168v242q-82 -121 -215 -194t-308 -73q-294 -1 -500 217t-206 524t207 523t499 217q224 0 400 -127t254 -346h-185q-68 143 -190 224q-123 81 -279 81q-222 0 -378 -169t-156 -403t157 -404q157 -169 375 -169q218 1 358 137t165 326h-510v168z" />
    <glyph glyph-name="H" unicode="H" horiz-adv-x="1458" 
d="M1118 1421h172v-1421h-172v662h-778v-662h-174v1421h174v-592h778v592z" />
    <glyph glyph-name="I" unicode="I" horiz-adv-x="522" 
d="M348 1421v-1421h-174v1421h174z" />
    <glyph glyph-name="J" unicode="J" horiz-adv-x="1114" 
d="M981 481q0 -227 -126 -366t-340 -139t-349 136q-135 138 -135 339h172q0 -129 82 -219t225 -89q143 0 221 91t78 247v940h172v-940z" />
    <glyph glyph-name="K" unicode="K" horiz-adv-x="1329" 
d="M340 0h-174v1421h174v-694l715 694h243l-589 -565l614 -856h-217l-522 735l-244 -233v-502z" />
    <glyph glyph-name="L" unicode="L" horiz-adv-x="1122" 
d="M1071 168v-168h-905v1421h174v-1253h731z" />
    <glyph glyph-name="M" unicode="M" horiz-adv-x="1697" 
d="M1532 1421v-1421h-174v1190l-416 -1190h-186l-416 1190v-1190h-174v1421h266l418 -1198l418 1198h264z" />
    <glyph glyph-name="N" unicode="N" horiz-adv-x="1464" 
d="M1296 1421v-1421h-192l-764 1157v-1157h-174v1421h194l764 -1155v1155h172z" />
    <glyph glyph-name="O" unicode="O" horiz-adv-x="1570" 
d="M786 143q221 0 377 167t156 410q0 242 -154 406t-377 164q-222 0 -378 -167t-156 -407t156 -407q156 -166 376 -166zM786 -25q-292 0 -498 215q-206 216 -206 526t206 525t500 215q295 0 499 -212t204 -524t-206 -528t-499 -217z" />
    <glyph glyph-name="P" unicode="P" horiz-adv-x="1273" 
d="M764 1255h-424v-528h424q131 0 208 66q77 67 77 199t-77 198t-208 65zM340 561v-561h-174v1421h598q215 -1 336 -119t121 -311t-121 -311t-336 -119h-424z" />
    <glyph glyph-name="Q" unicode="Q" horiz-adv-x="1572" 
d="M1319 728q0 234 -154 398t-377 164q-222 0 -378 -167t-156 -407t156 -407q156 -166 376 -166q143 0 265 74l-199 213h233l95 -102q139 166 139 400zM1491 725q0 -307 -195 -522l193 -203h-234l-88 92q-172 -117 -381 -117q-292 0 -498 215q-206 216 -206 526t206 525
t500 215t499 -212q204 -212 204 -519z" />
    <glyph glyph-name="R" unicode="R" horiz-adv-x="1361" 
d="M340 729h461q127 0 203 71t75 191q0 264 -284 264h-455v-526zM1210 172q0 -94 31 -172h-176q-27 63 -27 154v194q0 213 -233 213h-465v-561h-174v1421h629q215 1 338 -117t122 -313q0 -231 -194 -344q150 -88 149 -299v-176z" />
    <glyph glyph-name="S" unicode="S" horiz-adv-x="1224" 
d="M1147 396q-1 -198 -147 -310t-391 -111q-245 0 -393 131t-148 345h180q0 -141 100 -225t270 -85q170 0 263 70q92 70 92 180q0 109 -74 169q-73 60 -309 101t-358 131t-122 267q0 178 136 288q135 109 364 109q228 0 364 -119t136 -323h-176q0 128 -85 202t-242 74
t-239 -62t-81 -162q0 -100 72 -153q73 -51 307 -95t358 -134q123 -90 123 -288z" />
    <glyph glyph-name="T" unicode="T" horiz-adv-x="1136" 
d="M1102 1255h-447v-1255h-174v1255h-446v166h1067v-166z" />
    <glyph glyph-name="U" unicode="U" horiz-adv-x="1372" 
d="M313 510q-1 -162 99 -264t274 -102t272 100q98 102 99 266v911h174v-911q0 -238 -152 -386q-153 -148 -395 -148t-392 148t-151 386v911h172v-911z" />
    <glyph glyph-name="V" unicode="V" horiz-adv-x="1249" 
d="M1241 1421l-522 -1421h-187l-524 1421h189l428 -1206l430 1206h186z" />
    <glyph glyph-name="W" unicode="W" horiz-adv-x="1839" 
d="M1417 0h-184l-313 1143l-316 -1143h-184l-404 1421h185l311 -1140l315 1140h183l315 -1140l311 1140h185z" />
    <glyph glyph-name="X" unicode="X" horiz-adv-x="1193" 
d="M494 723l-463 698h207l360 -551l358 551h207l-463 -698l482 -723h-209l-375 575l-377 -575h-209z" />
    <glyph glyph-name="Y" unicode="Y" horiz-adv-x="1177" 
d="M676 0h-174v614l-494 807h201l381 -647l381 647h198l-493 -807v-614z" />
    <glyph glyph-name="Z" unicode="Z" horiz-adv-x="1191" 
d="M1137 168v-168h-1082v156l863 1099h-836v166h1051v-159l-857 -1094h861z" />
    <glyph glyph-name="bracketleft" unicode="[" horiz-adv-x="634" 
d="M332 1456v-1481h260v-149h-434v1782h434v-152h-260z" />
    <glyph glyph-name="backslash" unicode="\" horiz-adv-x="561" 
d="M-35 1524h174l430 -1524h-172z" />
    <glyph glyph-name="bracketright" unicode="]" horiz-adv-x="634" 
d="M303 1456h-260v152h434v-1782h-434v149h260v1481z" />
    <glyph glyph-name="asciicircum" unicode="^" horiz-adv-x="1050" 
d="M618 1421l365 -893h-186l-271 699l-272 -699h-186l366 893h184z" />
    <glyph glyph-name="underscore" unicode="_" horiz-adv-x="1804" 
d="M1804 -141v-168h-1804v168h1804z" />
    <glyph glyph-name="grave" unicode="`" horiz-adv-x="854" 
d="M207 1505h209l178 -270h-135z" />
    <glyph glyph-name="a" unicode="a" horiz-adv-x="1161" 
d="M246 298q0 -79 68 -120t197 -41t231 68t104 201v161q-78 -68 -320 -84q-158 -10 -219 -58t-61 -127zM846 774q0 66 -65 107t-180 41q-265 0 -288 -189h-180q10 160 133 254t327 94q203 0 313 -88t110 -239v-582q0 -94 31 -172h-173q-25 51 -26 121q-119 -145 -363 -146
q-176 0 -294 82t-117 244q0 307 430 330q188 8 265 43q77 34 77 100z" />
    <glyph glyph-name="b" unicode="b" horiz-adv-x="1282" 
d="M682 920q-148 0 -252 -116q-106 -116 -106 -279t106 -277t252 -115q146 1 250 115q102 114 102 277t-102 279t-250 116zM1208 526q0 -231 -150 -392t-376 -161q-113 -1 -210 55t-155 142v-170h-167v1524h174v-629q61 82 155 134t203 52q225 0 376 -161q150 -163 150 -394
z" />
    <glyph glyph-name="c" unicode="c" horiz-adv-x="1150" 
d="M246 526q0 -162 104 -276t250 -115q102 0 181 52t124 141h187q-52 -162 -184 -257t-308 -96q-219 0 -374 161t-154 390q0 229 155 393q156 163 373 162q174 0 305 -95t187 -257h-187q-45 88 -125 140t-180 53q-146 0 -250 -117t-104 -279z" />
    <glyph glyph-name="d" unicode="d" horiz-adv-x="1282" 
d="M246 525q0 -163 103 -277t249 -115q146 1 254 115q106 114 106 277t-105 279t-254 116t-251 -116t-102 -279zM1133 1524v-1524h-168v170q-57 -86 -155 -141t-210 -56q-225 0 -377 161t-151 392q0 231 151 394q152 162 377 161q109 0 203 -52t155 -134v629h175z" />
    <glyph glyph-name="e" unicode="e" horiz-adv-x="1198" 
d="M603 924q-116 0 -214 -78t-131 -209h684q-33 127 -128 207t-211 80zM612 133q224 0 314 195h184q-55 -168 -185 -260t-313 -93q-227 0 -384 160q-156 160 -156 390t155 394q156 163 373 163t377 -166q160 -165 158 -435h-887q16 -158 122 -253t242 -95z" />
    <glyph glyph-name="f" unicode="f" horiz-adv-x="626" 
d="M354 1092v-41h240v-166h-240v-885h-172v885h-143v166h143v41q0 232 116 338t300 83v-157q-120 8 -182 -50t-62 -214z" />
    <glyph glyph-name="g" unicode="g" horiz-adv-x="1265" 
d="M246 525q0 -163 103 -277t249 -115q146 1 254 115q106 114 106 277t-105 279t-254 116t-251 -116t-102 -279zM1133 1055v-1006q0 -255 -151 -411t-392 -156q-188 0 -324 94q-135 94 -174 254h182q82 -180 316 -180q186 0 277 118t91 281v111q-61 -82 -155 -134t-203 -53
q-225 0 -377 161t-151 392q0 231 151 394q152 162 377 161q111 0 208 -55t157 -139v168h168z" />
    <glyph glyph-name="h" unicode="h" horiz-adv-x="1175" 
d="M1030 635v-635h-172v641q0 127 -66 204q-67 77 -189 77t-201 -79t-78 -198v-645h-174v1524h174v-576q117 133 304 133q186 -1 294 -123t108 -323z" />
    <glyph glyph-name="i" unicode="i" horiz-adv-x="477" 
d="M326 1055v-1055h-174v1055h174zM326 1421v-207h-174v207h174z" />
    <glyph glyph-name="j" unicode="j" horiz-adv-x="454" 
d="M322 1055v-1200q0 -152 -80 -241t-242 -77v170q72 -6 113 29q37 37 37 121v1198h172zM322 1421v-207h-172v207h172z" />
    <glyph glyph-name="k" unicode="k" horiz-adv-x="1116" 
d="M324 0h-174v1524h174v-942l481 473h256l-408 -396l445 -659h-211l-361 537l-202 -197v-340z" />
    <glyph glyph-name="l" unicode="l" horiz-adv-x="481" 
d="M328 1524v-1524h-174v1524h174z" />
    <glyph glyph-name="m" unicode="m" horiz-adv-x="1787" 
d="M1645 653v-653h-175v657q0 125 -60 195t-172 70t-184 -79q-71 -79 -71 -198v-645h-172v657q0 125 -61 195t-172 70t-183 -79t-71 -198v-645h-174v1055h167v-115q104 141 281 141q221 0 326 -180q109 180 329 180q182 1 287 -115t105 -313z" />
    <glyph glyph-name="n" unicode="n" horiz-adv-x="1175" 
d="M1030 635v-635h-172v641q0 125 -67 203q-68 78 -189 78t-200 -79t-78 -198v-645h-174v1055h167v-115q115 141 307 141q192 -1 298 -123q108 -122 108 -323z" />
    <glyph glyph-name="o" unicode="o" horiz-adv-x="1206" 
d="M604 922q-146 0 -252 -117q-104 -117 -104 -280t104 -277t251 -113q146 0 251 114q104 115 104 277t-104 279t-250 117zM603 1081q224 -1 377 -163t153 -392t-153 -391q-153 -160 -377 -160t-378 160q-153 160 -153 390t153 394q154 162 378 162z" />
    <glyph glyph-name="p" unicode="p" horiz-adv-x="1282" 
d="M324 530q0 -162 106 -278t252 -117t250 115q102 116 102 279t-102 278t-248 115t-254 -115q-106 -115 -106 -277zM1208 528q0 -231 -150 -392t-376 -161q-109 -1 -204 51t-154 134v-629h-174v1524h167v-168q59 84 157 139t208 55q225 0 376 -160q150 -162 150 -393z" />
    <glyph glyph-name="q" unicode="q" horiz-adv-x="1282" 
d="M958 530q0 162 -106 277t-252 115t-250 -115t-104 -278t103 -279t249 -115t254 117q106 116 106 278zM1133 1055v-1524h-175v629q-59 -82 -154 -133t-204 -52q-225 0 -377 162q-151 162 -151 392t151 392q152 161 377 160q111 0 208 -55t157 -139v168h168z" />
    <glyph glyph-name="r" unicode="r" horiz-adv-x="706" 
d="M324 610v-610h-174v1055h167v-119q57 82 153 118t192 25v-172q-145 8 -242 -68q-96 -77 -96 -229z" />
    <glyph glyph-name="s" unicode="s" horiz-adv-x="1030" 
d="M537 135q117 0 189 50q72 49 73 117q-1 68 -55 106t-248 66t-295 91t-101 195t108 227q108 94 299 94t306 -88t131 -241h-176q-18 82 -86 126t-169 44t-170 -43t-69 -101t54 -87q54 -28 207 -51q269 -40 350 -116q82 -77 82 -220q0 -142 -121 -236q-120 -94 -312 -94
t-321 96q-129 98 -150 264h177q16 -90 98 -144t199 -55z" />
    <glyph glyph-name="t" unicode="t" horiz-adv-x="641" 
d="M178 385v504h-143v166h143v225h172v-225h240v-166h-240v-504q0 -241 244 -225v-160q-186 -22 -301 82t-115 303z" />
    <glyph glyph-name="u" unicode="u" horiz-adv-x="1175" 
d="M1026 1055v-1055h-168v115q-117 -139 -307 -139t-298 122q-108 123 -108 322v635h172v-643q0 -129 68 -204t189 -75q122 0 200 78t78 197v647h174z" />
    <glyph glyph-name="v" unicode="v" horiz-adv-x="993" 
d="M973 1055l-383 -1055h-187l-383 1055h185l293 -840l290 840h185z" />
    <glyph glyph-name="w" unicode="w" horiz-adv-x="1476" 
d="M829 1055l226 -793l223 793h182l-315 -1055h-182l-226 807l-225 -807h-180l-316 1055h183l225 -793l225 793h180z" />
    <glyph glyph-name="x" unicode="x" horiz-adv-x="991" 
d="M766 0l-270 412l-271 -412h-213l377 545l-352 510h213l246 -377l245 377h213l-354 -510l379 -545h-213z" />
    <glyph glyph-name="y" unicode="y" horiz-adv-x="1024" 
d="M1004 1055l-474 -1258q-55 -150 -150 -210t-251 -44v160q100 -8 153 27q52 35 87 129l55 147l-404 1049h189l307 -840l301 840h187z" />
    <glyph glyph-name="z" unicode="z" horiz-adv-x="962" 
d="M907 168v-168h-852v145l607 744h-590v166h817v-158l-600 -729h618z" />
    <glyph glyph-name="braceleft" unicode="{" horiz-adv-x="630" 
d="M401 1298v-337q0 -195 -143 -250q143 -53 143 -250v-332q0 -162 158 -154v-145q-145 -12 -234 60t-89 239v338q0 172 -177 172v143q176 0 177 172v344q0 168 89 240t234 59v-145q-158 8 -158 -154z" />
    <glyph glyph-name="bar" unicode="|" horiz-adv-x="454" 
d="M313 1524v-1524h-172v1524h172z" />
    <glyph glyph-name="braceright" unicode="}" horiz-adv-x="630" 
d="M395 1298v-344q0 -172 176 -172v-143q-176 0 -176 -172v-338q0 -168 -89 -240t-234 -59v145q158 -8 157 154v332q0 197 144 250q-143 55 -144 250v337q0 162 -157 154v145q145 13 234 -59t89 -240z" />
    <glyph glyph-name="asciitilde" unicode="~" horiz-adv-x="776" 
d="M520 1214q-59 0 -155 39q-95 39 -133 39t-60 -24t-27 -64h-98q7 90 61 152t132 63q78 0 174 -40q94 -40 130 -40t60 26t27 65h98q-5 -90 -59 -153t-150 -63z" />
    <glyph glyph-name="nbspace" unicode="&#xa0;" horiz-adv-x="604" 
 />
    <glyph glyph-name="exclamdown" unicode="&#xa1;" horiz-adv-x="555" 
d="M190 0v1059h175v-1059h-175zM180 1219v202h195v-202h-195z" />
    <glyph glyph-name="cent" unicode="&#xa2;" horiz-adv-x="1120" 
d="M238 539q0 -101 44 -185t119 -133l211 692l-30 2q-143 0 -244 -110q-100 -111 -100 -266zM582 0q-53 0 -121 14l-72 -239h-123l86 282q-129 66 -209 196t-80 286q0 223 153 383t366 159q41 0 80 -6l65 217h123l-76 -248q207 -82 287 -307h-189q-51 98 -147 146l-215 -709
q45 -8 72 -8q96 0 173 47t119 131h187q-53 -158 -181 -251t-298 -93z" />
    <glyph glyph-name="sterling" unicode="&#xa3;" horiz-adv-x="1126" 
d="M322 487q0 59 -31 125h-228v117h156q-100 155 -100 291q0 178 131 295t341 117t340 -123t130 -320h-172q0 129 -78 204t-217 75t-218 -68t-79 -164t29 -151q29 -54 88 -156h327v-117h-278q18 -66 18 -127q0 -182 -133 -301q150 82 330 6q104 -42 175 -40t138 55l96 -144
q-195 -156 -479 -26q-179 101 -393 -49l-96 145q203 121 203 356z" />
    <glyph glyph-name="currency" unicode="&#xa4;" horiz-adv-x="1409" 
d="M798 -8q-186 0 -348 125t-227 321h-151v117h125q-13 95 -4 150h-121v116h139q55 211 224 348t382 138q147 -1 279 -63t223 -173l-80 -164q-63 104 -178 170t-251 66t-252 -90t-165 -232h805l-57 -116h-774q-2 -17 -2 -63t8 -87h696l-57 -117h-604q56 -127 166 -205
t243 -77q193 0 328 157h201q-82 -147 -222 -234t-326 -87z" />
    <glyph glyph-name="yen" unicode="&#xa5;" horiz-adv-x="1234" 
d="M1145 952v-116h-285l-131 -226h383v-116h-407v-494h-175v494h-409v116h385l-131 226h-285v116h217l-272 469h201l380 -673l383 673h201l-272 -469h217z" />
    <glyph glyph-name="section" unicode="&#xa7;" horiz-adv-x="1095" 
d="M838 657q0 68 -52 106q-52 39 -211 67q-158 28 -237 71q-78 -37 -78 -116t54 -117t209 -68q155 -31 235 -68q80 33 80 125zM922 285q0 -141 -104 -225t-272 -85q-170 1 -276 95t-106 247h170q0 -86 58 -132t152 -46t148 39q56 40 56 100t-52 96t-156 57q-106 21 -140 29
t-90 27q-56 18 -89 42t-67 57q-68 65 -68 201t127 223q-39 59 -39 137q0 137 104 223t274 86q169 0 275 -92t107 -252h-170q0 84 -54 132t-150 48t-153 -37q-59 -37 -59 -101t51 -98t235 -69t280 -107q98 -72 98 -222t-125 -234q35 -55 35 -139z" />
    <glyph glyph-name="dieresis" unicode="&#xa8;" horiz-adv-x="854" 
d="M336 1245h-166v185h166v-185zM684 1245h-166v185h166v-185z" />
    <glyph glyph-name="copyright" unicode="&#xa9;" horiz-adv-x="1638" 
d="M819 274q-174 0 -298 130t-124 312t124 311q124 130 298 130q141 0 251 -84t151 -217h-160q-33 72 -97 114q-65 42 -145 42q-115 0 -193 -86t-77 -209q0 -123 78 -210t192 -87q78 0 143 43t99 115h158q-43 -132 -153 -218t-247 -86zM819 113q246 0 420 177t174 427
t-174 426t-420 176t-420 -176t-174 -426t174 -427t420 -177zM819 1456q307 0 524 -217t217 -523t-216 -523q-218 -217 -525 -217t-524 216q-217 218 -217 524t217 523t524 217z" />
    <glyph glyph-name="ordfeminine" unicode="&#xaa;" horiz-adv-x="776" 
d="M522 1032v82q-49 -35 -164 -45q-160 -14 -159 -100q0 -84 127 -84q80 -1 138 33t58 114zM313 760q-102 0 -177 55t-75 160q0 187 287 213q172 12 172 72q0 72 -128 72t-159 -83h-139q18 101 100 153t202 52q122 0 190 -56t67 -153v-364q0 -57 21 -103h-131q-12 31 -17 58
q-70 -76 -213 -76z" />
    <glyph glyph-name="guillemotleft" unicode="&#xab;" horiz-adv-x="866" 
d="M47 682l324 279v-183l-205 -164l205 -168v-180l-324 279v137zM805 778l-205 -164l205 -168v-180l-324 279v137l324 279v-183z" />
    <glyph glyph-name="logicalnot" unicode="&#xac;" 
d="M307 784v-213h-205v213h205z" />
    <glyph glyph-name="registered" unicode="&#xae;" horiz-adv-x="1638" 
d="M672 752h239q53 0 90 30t37 95q0 125 -127 124h-239v-249zM672 610v-282h-154v815h391q129 0 205 -73t76 -176q0 -104 -46 -170t-124 -95l174 -303h-176l-148 284h-198zM1413 717q0 250 -174 426t-420 176t-420 -176t-174 -426t174 -427t420 -177t420 177t174 427z
M819 1456q307 0 525 -217t217 -523q1 -306 -217 -523t-525 -217t-524 216q-217 218 -217 524t217 523t524 217z" />
    <glyph glyph-name="macron" unicode="&#xaf;" horiz-adv-x="800" 
d="M715 1389v-123h-629v123h629z" />
    <glyph glyph-name="macron" unicode="&#x2c9;" horiz-adv-x="800" 
d="M715 1389v-123h-629v123h629z" />
    <glyph glyph-name="degree" unicode="&#xb0;" horiz-adv-x="774" 
d="M387 907q84 1 141 59t58 142q0 84 -58 142t-141 58q-82 0 -140 -58q-59 -58 -59 -142t58 -142t141 -59zM386 1421q130 0 223 -92t93 -222t-93 -222t-223 -92t-222 92t-92 222t92 222t222 92z" />
    <glyph glyph-name="twosuperior" unicode="&#xb2;" horiz-adv-x="770" 
d="M657 657v-129h-606v68q0 135 73 216t206 153q133 73 173 115t40 100t-39 100q-39 41 -123 41t-131 -54t-47 -137h-135q0 134 85 226t227 92t219 -80t77 -192t-66 -177q-66 -66 -186 -132q-120 -65 -168 -109q-47 -44 -59 -101h460z" />
    <glyph glyph-name="threesuperior" unicode="&#xb3;" horiz-adv-x="804" 
d="M721 797q0 -127 -92 -206q-93 -79 -231 -79t-228 72t-98 211h137q2 -66 47 -112t139 -46t142 47q47 46 47 108t-39 105t-129 43h-74v127h55q82 0 119 34t37 89t-38 94t-113 39q-76 0 -122 -46t-47 -116h-135q0 121 82 204t219 83t213 -74t76 -188t-98 -168
q131 -65 131 -221z" />
    <glyph glyph-name="acute" unicode="&#xb4;" horiz-adv-x="854" 
d="M715 1505l-244 -270h-143l178 270h209z" />
    <glyph glyph-name="mu" unicode="&#xb5;" 
d="M307 784v-213h-205v213h205z" />
    <glyph glyph-name="mu" unicode="&#x3bc;" 
d="M307 784v-213h-205v213h205z" />
    <glyph glyph-name="paragraph" unicode="&#xb6;" horiz-adv-x="1126" 
d="M999 1421v-1421h-174v1255h-180v-1255h-172v563q-197 10 -309 127q-112 118 -111 306q0 188 121 307t336 118h489z" />
    <glyph glyph-name="periodcentered" unicode="&#xb7;" 
d="M307 784v-213h-205v213h205z" />
    <glyph glyph-name="periodcentered" unicode="&#x22c5;" 
d="M307 784v-213h-205v213h205z" />
    <glyph glyph-name="cedilla" unicode="&#xb8;" horiz-adv-x="516" 
d="M430 -231q0 -154 -164 -154q-113 0 -180 86l25 45q59 -55 147 -55q38 0 62 17t24 46t-22 49q-23 21 -64 21t-70 -27l-65 43l78 160h92l-75 -118q60 30 136 -2t76 -111z" />
    <glyph glyph-name="onesuperior" unicode="&#xb9;" horiz-adv-x="471" 
d="M305 1421v-893h-135v717h-131v84q131 4 139 92h127z" />
    <glyph glyph-name="ordmasculine" unicode="&#xba;" horiz-adv-x="788" 
d="M395 887q82 0 140 64q57 65 57 155t-57 156t-139 66t-141 -66q-58 -66 -58 -156t58 -154t140 -65zM395 1454q137 0 235 -102t97 -246q0 -144 -97 -244q-96 -102 -234 -102t-236 101t-98 245t98 246t235 102z" />
    <glyph glyph-name="guillemotright" unicode="&#xbb;" horiz-adv-x="866" 
d="M59 961l326 -279v-137l-326 -279v180l205 168l-205 164v183zM819 682v-137l-325 -279v180l204 168l-204 164v183z" />
    <glyph glyph-name="onequarter" unicode="&#xbc;" horiz-adv-x="1388" 
d="M1085 324v362l-262 -362h262zM1294 195h-73v-195h-136v195h-411v133l409 565h138v-569h73v-129zM1079 1421l-835 -1446h-127l835 1446h127zM168 1245h-129v84q129 4 137 92h127v-893h-135v717z" />
    <glyph glyph-name="onehalf" unicode="&#xbd;" horiz-adv-x="1542" 
d="M1430 131v-131h-609v68q0 137 72 217q72 79 205 151t173 115t40 101t-39 100t-122 43t-130 -55t-47 -138h-135q0 135 85 226q85 92 227 92t220 -80t78 -192t-67 -178t-187 -130t-168 -108q-47 -44 -59 -101h463zM1081 1421l-835 -1446h-127l833 1446h129zM170 1245h-131
v84q131 4 139 92h127v-893h-135v717z" />
    <glyph glyph-name="threequarters" unicode="&#xbe;" horiz-adv-x="1705" 
d="M1434 324v362l-263 -362h263zM1642 195h-73v-195h-135v195h-410v133l410 565h135v-569h73v-129zM467 -25l833 1446h127l-833 -1446h-127zM719 797q0 -127 -92 -206q-93 -79 -231 -79t-227 72t-97 211h137q2 -66 47 -112t139 -46t142 47q47 46 47 108t-39 105t-129 43h-76
v127h57q82 0 119 34t37 89t-39 94t-113 39q-75 0 -121 -46t-47 -116h-135q0 121 82 204t219 83t213 -74t76 -188t-98 -168q129 -63 129 -221z" />
    <glyph glyph-name="questiondown" unicode="&#xbf;" horiz-adv-x="1069" 
d="M94 362q0 92 39 169t78 112t105 83t97 76q30 28 54 80q25 52 25 122v55h170v-55q0 -214 -166 -344q-22 -18 -92 -69q-68 -52 -103 -99t-35 -123q0 -113 71 -175t205 -62t212 70q78 71 77 183h175q0 -176 -127 -298t-335 -122q-208 1 -329 113t-121 284zM477 1219v202h197
v-202h-197z" />
    <glyph glyph-name="Agrave" unicode="&#xc0;" horiz-adv-x="1284" 
d="M870 575l-227 633l-231 -633h458zM928 414h-576l-151 -414h-189l537 1421h196l527 -1421h-195zM311 1847h211l180 -280h-137z" />
    <glyph glyph-name="Aacute" unicode="&#xc1;" horiz-adv-x="1284" 
d="M870 575l-227 633l-231 -633h458zM928 414h-576l-151 -414h-189l537 1421h196l527 -1421h-195zM983 1847l-256 -280h-137l178 280h215z" />
    <glyph glyph-name="Acircumflex" unicode="&#xc2;" horiz-adv-x="1284" 
d="M870 575l-227 633l-231 -633h458zM928 414h-576l-151 -414h-189l537 1421h196l527 -1421h-195zM764 1565l-131 186l-131 -186h-158l213 290h150l215 -290h-158z" />
    <glyph glyph-name="Atilde" unicode="&#xc3;" horiz-adv-x="1284" 
d="M870 575l-227 633l-231 -633h458zM928 414h-576l-151 -414h-189l537 1421h196l527 -1421h-195zM760 1593q-60 0 -156 39t-133 39q-37 -1 -59 -25t-27 -63h-98q6 91 59 153t150 62q63 0 157 -40t130 -40t60 26t27 64h99q-7 -90 -61 -152t-148 -63z" />
    <glyph glyph-name="Adieresis" unicode="&#xc4;" horiz-adv-x="1284" 
d="M870 575l-227 633l-231 -633h458zM928 414h-576l-151 -414h-189l537 1421h196l527 -1421h-195zM563 1585h-188v205h188v-205zM907 1585h-186v205h186v-205z" />
    <glyph glyph-name="Aring" unicode="&#xc5;" horiz-adv-x="1284" 
d="M870 575l-227 633l-231 -633h458zM641 1663q43 1 73 31t31 74q0 44 -30 75q-31 31 -74 31t-74 -31t-31 -75t32 -74q30 -30 73 -31zM928 414h-576l-151 -414h-189l537 1421h196l527 -1421h-195zM640 1573q-81 0 -137 57q-57 57 -57 138q0 80 56 138t138 58q81 0 138 -57
q58 -57 58 -139t-58 -138q-58 -57 -138 -57z" />
    <glyph glyph-name="AE" unicode="&#xc6;" horiz-adv-x="1978" 
d="M948 582v673h-209l-288 -673h497zM1890 1421v-166h-768v-430h686v-166h-686v-491h768v-168h-942v414h-569l-178 -414h-189l619 1421h1259z" />
    <glyph glyph-name="Ccedilla" unicode="&#xc7;" horiz-adv-x="1488" 
d="M942 -233q0 -77 -45 -115t-121 -37q-111 0 -180 86l25 45q61 -55 147 -55q38 0 62 17t24 46t-23 49q-23 21 -63 21t-70 -27l-65 43l69 140q-264 34 -442 244t-178 504t207 511t497 217q238 0 410 -129t242 -344h-183q-61 139 -181 223t-288 84q-220 0 -376 -169
t-156 -405t157 -404q157 -169 375 -169q156 0 280 82t189 226h183q-72 -217 -248 -347q-177 -129 -404 -129l-59 -96q67 35 141 0t74 -112z" />
    <glyph glyph-name="Egrave" unicode="&#xc8;" horiz-adv-x="1269" 
d="M166 1421h1016v-166h-842v-430h760v-166h-760v-491h842v-168h-1016v1421zM377 1847h213l178 -280h-135z" />
    <glyph glyph-name="Eacute" unicode="&#xc9;" horiz-adv-x="1269" 
d="M166 1421h1016v-166h-842v-430h760v-166h-760v-491h842v-168h-1016v1421zM995 1847l-256 -280h-135l178 280h213z" />
    <glyph glyph-name="Ecircumflex" unicode="&#xca;" horiz-adv-x="1269" 
d="M166 1421h1016v-166h-842v-430h760v-166h-760v-491h842v-168h-1016v1421zM809 1565l-133 186l-131 -186h-158l213 290h152l215 -290h-158z" />
    <glyph glyph-name="Edieresis" unicode="&#xcb;" horiz-adv-x="1269" 
d="M166 1421h1016v-166h-842v-430h760v-166h-760v-491h842v-168h-1016v1421zM596 1585h-188v205h188v-205zM942 1585h-188v205h188v-205z" />
    <glyph glyph-name="Igrave" unicode="&#xcc;" horiz-adv-x="522" 
d="M348 1421v-1421h-174v1421h174zM-74 1847h213l178 -280h-137z" />
    <glyph glyph-name="Iacute" unicode="&#xcd;" horiz-adv-x="522" 
d="M348 1421v-1421h-174v1421h174zM584 1847l-256 -280h-138l179 280h215z" />
    <glyph glyph-name="Icircumflex" unicode="&#xce;" horiz-adv-x="522" 
d="M348 1421v-1421h-174v1421h174zM393 1565l-131 186l-133 -186h-158l213 290h152l215 -290h-158z" />
    <glyph glyph-name="Idieresis" unicode="&#xcf;" horiz-adv-x="522" 
d="M348 1421v-1421h-174v1421h174zM182 1585h-188v205h188v-205zM528 1585h-188v205h188v-205z" />
    <glyph glyph-name="Eth" unicode="&#xd0;" horiz-adv-x="1417" 
d="M694 168q209 0 337 136t128 410q0 275 -128 408t-337 133h-354v-378h424v-168h-424v-541h354zM1337 712q0 -328 -174 -520t-469 -192h-528v709h-131v168h131v544h528q295 0 469 -190t174 -519z" />
    <glyph glyph-name="Ntilde" unicode="&#xd1;" horiz-adv-x="1464" 
d="M1296 1421v-1421h-192l-764 1157v-1157h-174v1421h194l764 -1155v1155h172zM870 1593q-59 0 -155 39t-133 39q-37 -1 -60 -25t-26 -63h-99q5 91 59 153t134 62t174 -40t130 -40t60 26t27 64h98q-7 -90 -61 -152t-148 -63z" />
    <glyph glyph-name="Ograve" unicode="&#xd2;" horiz-adv-x="1570" 
d="M786 143q221 0 377 167t156 410q0 242 -154 406t-377 164q-222 0 -378 -167t-156 -407t156 -407q156 -166 376 -166zM786 -25q-292 0 -498 215q-206 216 -206 526t206 525t500 215q295 0 499 -212t204 -524t-206 -528t-499 -217zM457 1847h213l180 -280h-137z" />
    <glyph glyph-name="Oacute" unicode="&#xd3;" horiz-adv-x="1570" 
d="M786 143q221 0 377 167t156 410q0 242 -154 406t-377 164q-222 0 -378 -167t-156 -407t156 -407q156 -166 376 -166zM786 -25q-292 0 -498 215q-206 216 -206 526t206 525t500 215q295 0 499 -212t204 -524t-206 -528t-499 -217zM1122 1847l-256 -280h-135l178 280h213z
" />
    <glyph glyph-name="Ocircumflex" unicode="&#xd4;" horiz-adv-x="1570" 
d="M786 143q221 0 377 167t156 410q0 242 -154 406t-377 164q-222 0 -378 -167t-156 -407t156 -407q156 -166 376 -166zM786 -25q-292 0 -498 215q-206 216 -206 526t206 525t500 215q295 0 499 -212t204 -524t-206 -528t-499 -217zM918 1565l-132 186l-131 -186h-157
l213 290h149l215 -290h-157z" />
    <glyph glyph-name="Otilde" unicode="&#xd5;" horiz-adv-x="1570" 
d="M786 143q221 0 377 167t156 410q0 242 -154 406t-377 164q-222 0 -378 -167t-156 -407t156 -407q156 -166 376 -166zM786 -25q-292 0 -498 215q-206 216 -206 526t206 525t500 215q295 0 499 -212t204 -524t-206 -528t-499 -217zM897 1593q-59 0 -155 39t-134 39
q-38 -1 -60 -25t-26 -63h-98q6 91 59 153t150 62q63 0 157 -40t131 -40q35 0 59 26t28 64h98q-8 -90 -62 -152t-147 -63z" />
    <glyph glyph-name="Odieresis" unicode="&#xd6;" horiz-adv-x="1570" 
d="M786 143q221 0 377 167t156 410q0 242 -154 406t-377 164q-222 0 -378 -167t-156 -407t156 -407q156 -166 376 -166zM786 -25q-292 0 -498 215q-206 216 -206 526t206 525t500 215q295 0 499 -212t204 -524t-206 -528t-499 -217zM707 1585h-187v205h187v-205zM1053 1585
h-187v205h187v-205z" />
    <glyph glyph-name="multiply" unicode="&#xd7;" horiz-adv-x="1046" 
d="M899 25l-375 374l-374 -374l-119 118l375 375l-375 373l119 119l374 -375l375 375l117 -119l-373 -373l373 -375z" />
    <glyph glyph-name="Oslash" unicode="&#xd8;" horiz-adv-x="1572" 
d="M1319 717q0 197 -105 346l-778 -780q145 -139 358 -139t369 166q156 167 156 407zM777 1290q-211 0 -367 -167t-156 -406q0 -194 104 -344l781 780q-150 137 -362 137zM1491 717q0 -309 -206 -525q-205 -216 -487 -217q-282 0 -483 189l-143 -144l-82 84l146 146
q-154 203 -154 467q0 309 206 524t490 215t482 -184l139 141l84 -82l-146 -145q154 -199 154 -469z" />
    <glyph glyph-name="Ugrave" unicode="&#xd9;" horiz-adv-x="1372" 
d="M313 510q-1 -162 99 -264t274 -102t272 100q98 102 99 266v911h174v-911q0 -238 -152 -386q-153 -148 -395 -148t-392 148t-151 386v911h172v-911zM379 1847h213l178 -280h-135z" />
    <glyph glyph-name="Uacute" unicode="&#xda;" horiz-adv-x="1372" 
d="M313 510q-1 -162 99 -264t274 -102t272 100q98 102 99 266v911h174v-911q0 -238 -152 -386q-153 -148 -395 -148t-392 148t-151 386v911h172v-911zM995 1847l-256 -280h-135l178 280h213z" />
    <glyph glyph-name="Ucircumflex" unicode="&#xdb;" horiz-adv-x="1372" 
d="M313 510q-1 -162 99 -264t274 -102t272 100q98 102 99 266v911h174v-911q0 -238 -152 -386q-153 -148 -395 -148t-392 148t-151 386v911h172v-911zM823 1565l-131 186l-131 -186h-158l213 290h152l213 -290h-158z" />
    <glyph glyph-name="Udieresis" unicode="&#xdc;" horiz-adv-x="1372" 
d="M313 510q-1 -162 99 -264t274 -102t272 100q98 102 99 266v911h174v-911q0 -238 -152 -386q-153 -148 -395 -148t-392 148t-151 386v911h172v-911zM608 1585h-188v205h188v-205zM952 1585h-186v205h186v-205z" />
    <glyph glyph-name="Yacute" unicode="&#xdd;" horiz-adv-x="1177" 
d="M920 1810l-256 -280h-138l179 280h215zM676 0h-174v614l-494 807h201l381 -647l381 647h198l-493 -807v-614z" />
    <glyph glyph-name="Thorn" unicode="&#xde;" horiz-adv-x="1273" 
d="M1047 792q0 134 -76 198t-207 65h-426v-527h426q131 0 207 65t76 199zM1221 793q0 -193 -122 -312t-335 -119h-426v-362h-172v1421h172v-198h426q213 -1 335 -119t122 -311z" />
    <glyph glyph-name="germandbls" unicode="&#xdf;" horiz-adv-x="1230" 
d="M1151 434q0 -207 -135 -333t-354 -126q-102 0 -201 29v170q94 -35 219 -35t212 78t87 219t-98 213t-236 76h-178v166h127q129 -1 205 67q75 68 75 176t-80 169q-81 61 -199 61t-200 -76t-82 -237v-1051h-172v1051q0 215 126 344t327 129t328 -113t127 -299t-172 -283
q131 -47 203 -149t71 -246z" />
    <glyph glyph-name="agrave" unicode="&#xe0;" horiz-adv-x="1161" 
d="M246 298q0 -79 68 -120t197 -41t231 68t104 201v161q-78 -68 -320 -84q-158 -10 -219 -58t-61 -127zM846 774q0 66 -65 107t-180 41q-265 0 -288 -189h-180q10 160 133 254t327 94q203 0 313 -88t110 -239v-582q0 -94 31 -172h-173q-25 51 -26 121q-119 -145 -363 -146
q-176 0 -294 82t-117 244q0 307 430 330q188 8 265 43q77 34 77 100zM283 1477h213l178 -281h-135z" />
    <glyph glyph-name="aacute" unicode="&#xe1;" horiz-adv-x="1161" 
d="M246 298q0 -79 68 -120t197 -41t231 68t104 201v161q-78 -68 -320 -84q-158 -10 -219 -58t-61 -127zM846 774q0 66 -65 107t-180 41q-265 0 -288 -189h-180q10 160 133 254t327 94q203 0 313 -88t110 -239v-582q0 -94 31 -172h-173q-25 51 -26 121q-119 -145 -363 -146
q-176 0 -294 82t-117 244q0 307 430 330q188 8 265 43q77 34 77 100zM905 1475l-256 -279h-135l178 279h213z" />
    <glyph glyph-name="acircumflex" unicode="&#xe2;" horiz-adv-x="1161" 
d="M246 298q0 -79 68 -120t197 -41t231 68t104 201v161q-78 -68 -320 -84q-158 -10 -219 -58t-61 -127zM846 774q0 66 -65 107t-180 41q-265 0 -288 -189h-180q10 160 133 254t327 94q203 0 313 -88t110 -239v-582q0 -94 31 -172h-173q-25 51 -26 121q-119 -145 -363 -146
q-176 0 -294 82t-117 244q0 307 430 330q188 8 265 43q77 34 77 100zM711 1194l-131 186l-131 -186h-158l213 293h151l213 -293h-157z" />
    <glyph glyph-name="atilde" unicode="&#xe3;" horiz-adv-x="1161" 
d="M246 298q0 -79 68 -120t197 -41t231 68t104 201v161q-78 -68 -320 -84q-158 -10 -219 -58t-61 -127zM846 774q0 66 -65 107t-180 41q-265 0 -288 -189h-180q10 160 133 254t327 94q203 0 313 -88t110 -239v-582q0 -94 31 -172h-173q-25 51 -26 121q-119 -145 -363 -146
q-176 0 -294 82t-117 244q0 307 430 330q188 8 265 43q77 34 77 100zM711 1223q-57 0 -155 39q-98 38 -134 38q-37 0 -60 -24t-26 -64h-98q6 90 60 154t132 64t174 -40t132 -40t60 24t27 64h97q-6 -90 -60 -152t-149 -63z" />
    <glyph glyph-name="adieresis" unicode="&#xe4;" horiz-adv-x="1161" 
d="M246 298q0 -79 68 -120t197 -41t231 68t104 201v161q-78 -68 -320 -84q-158 -10 -219 -58t-61 -127zM846 774q0 66 -65 107t-180 41q-265 0 -288 -189h-180q10 160 133 254t327 94q203 0 313 -88t110 -239v-582q0 -94 31 -172h-173q-25 51 -26 121q-119 -145 -363 -146
q-176 0 -294 82t-117 244q0 307 430 330q188 8 265 43q77 34 77 100zM504 1217h-189v202h189v-202zM850 1217h-188v202h188v-202z" />
    <glyph glyph-name="aring" unicode="&#xe5;" horiz-adv-x="1161" 
d="M688 1413q0 43 -31 74t-75 31t-74 -31q-31 -31 -31 -74t31 -74t75 -31q45 0 75 32q30 30 30 73zM246 298q0 -79 68 -120t197 -41t231 68t104 201v161q-78 -68 -320 -84q-158 -10 -219 -58t-61 -127zM846 774q0 66 -65 107t-180 41q-265 0 -288 -189h-180q10 160 133 254
t327 94q203 0 313 -88t110 -239v-582q0 -94 31 -172h-173q-25 51 -26 121q-119 -145 -363 -146q-176 0 -294 82t-117 244q0 307 430 330q188 8 265 43q77 34 77 100zM584 1219q-82 0 -140 57q-57 57 -57 138t57 137q58 57 140 57t138 -56t56 -138q0 -81 -56 -138t-138 -57z
" />
    <glyph glyph-name="ae" unicode="&#xe6;" horiz-adv-x="1970" 
d="M246 298q0 -79 68 -120t197 -41t231 68t104 201v161q-74 -66 -320 -82q-158 -12 -219 -60t-61 -127zM1375 924q-116 0 -214 -78t-131 -209h684q-33 127 -128 207t-211 80zM484 -25q-170 0 -290 82t-120 244q0 307 430 330q188 8 265 43q77 34 77 100t-65 107t-180 41
q-265 0 -288 -189h-180q10 160 132 254t323 94q313 0 393 -196q150 197 393 196q215 0 375 -165t158 -435h-887q16 -158 122 -253t242 -95q224 0 312 195h186q-55 -168 -185 -260t-292 -92t-278 66q-116 67 -185 183q-51 -117 -169 -183t-289 -67z" />
    <glyph glyph-name="ccedilla" unicode="&#xe7;" horiz-adv-x="1150" 
d="M621 -385q-115 0 -183 86l25 45q61 -55 147 -55q37 0 62 17t24 46q0 29 -22 49q-23 21 -64 21t-69 -27l-66 43l68 140q-199 22 -335 178t-136 376t155 385q156 163 373 162q174 0 305 -95t187 -257h-187q-96 186 -305 186q-145 0 -250 -114q-104 -115 -104 -275t104 -272
t250 -113q211 0 305 187h187q-51 -156 -175 -250t-288 -103l-60 -96q66 35 141 0q74 -35 74 -112t-45 -115t-118 -37z" />
    <glyph glyph-name="egrave" unicode="&#xe8;" horiz-adv-x="1198" 
d="M603 924q-116 0 -214 -78t-131 -209h684q-33 127 -128 207t-211 80zM612 133q224 0 314 195h184q-55 -168 -185 -260t-313 -93q-227 0 -384 160q-156 160 -156 390t155 394q156 163 373 163t377 -166q160 -165 158 -435h-887q16 -158 122 -253t242 -95zM279 1477h213
l178 -281h-138z" />
    <glyph glyph-name="eacute" unicode="&#xe9;" horiz-adv-x="1198" 
d="M603 924q-116 0 -214 -78t-131 -209h684q-33 127 -128 207t-211 80zM612 133q224 0 314 195h184q-55 -168 -185 -260t-313 -93q-227 0 -384 160q-156 160 -156 390t155 394q156 163 373 163t377 -166q160 -165 158 -435h-887q16 -158 122 -253t242 -95zM934 1475
l-256 -279h-135l178 279h213z" />
    <glyph glyph-name="ecircumflex" unicode="&#xea;" horiz-adv-x="1198" 
d="M603 924q-116 0 -214 -78t-131 -209h684q-33 127 -128 207t-211 80zM612 133q224 0 314 195h184q-55 -168 -185 -260t-313 -93q-227 0 -384 160q-156 160 -156 390t155 394q156 163 373 163t377 -166q160 -165 158 -435h-887q16 -158 122 -253t242 -95zM715 1194
l-131 186l-131 -186h-158l213 293h151l213 -293h-157z" />
    <glyph glyph-name="edieresis" unicode="&#xeb;" horiz-adv-x="1198" 
d="M603 924q-116 0 -214 -78t-131 -209h684q-33 127 -128 207t-211 80zM612 133q224 0 314 195h184q-55 -168 -185 -260t-313 -93q-227 0 -384 160q-156 160 -156 390t155 394q156 163 373 163t377 -166q160 -165 158 -435h-887q16 -158 122 -253t242 -95zM512 1217h-186
v202h186v-202zM858 1217h-186v202h186v-202z" />
    <glyph glyph-name="igrave" unicode="&#xec;" horiz-adv-x="477" 
d="M326 1055v-1055h-174v1055h174zM-96 1477h213l178 -281h-135z" />
    <glyph glyph-name="iacute" unicode="&#xed;" horiz-adv-x="477" 
d="M326 1055v-1055h-174v1055h174zM565 1475l-256 -279h-135l178 279h213z" />
    <glyph glyph-name="icircumflex" unicode="&#xee;" horiz-adv-x="477" 
d="M326 1055v-1055h-174v1055h174zM365 1194l-129 186l-134 -186h-157l215 293h149l213 -293h-157z" />
    <glyph glyph-name="idieresis" unicode="&#xef;" horiz-adv-x="477" 
d="M326 1055v-1055h-174v1055h174zM160 1217h-189v202h189v-202zM506 1217h-189v202h189v-202z" />
    <glyph glyph-name="eth" unicode="&#xf0;" horiz-adv-x="1193" 
d="M595 -35q-220 0 -371 159t-150 384q0 225 150 385q151 160 372 160q123 0 221 -64q-94 145 -221 256l-137 -100l-94 59l151 109q-86 66 -168 110l141 105q63 -39 160 -117l117 88l96 -57l-137 -101q176 -170 284 -385q107 -215 107 -444t-150 -388t-371 -159zM944 508
q0 160 -102 274t-246 113q-144 0 -248 -114q-102 -113 -102 -273t102 -272t248 -113q146 1 246 113q102 112 102 272z" />
    <glyph glyph-name="ntilde" unicode="&#xf1;" horiz-adv-x="1175" 
d="M1030 635v-635h-172v641q0 125 -67 203q-68 78 -189 78t-200 -79t-78 -198v-645h-174v1055h167v-115q115 141 307 141q192 -1 298 -123q108 -122 108 -323zM711 1223q-57 0 -155 39q-98 38 -134 38q-37 0 -60 -24t-26 -64h-98q6 90 60 154t132 64t174 -40t132 -40t60 24
t27 64h97q-6 -90 -60 -152t-149 -63z" />
    <glyph glyph-name="ograve" unicode="&#xf2;" horiz-adv-x="1206" 
d="M604 922q-146 0 -252 -117q-104 -117 -104 -280t104 -277t251 -113q146 0 251 114q104 115 104 277t-104 279t-250 117zM603 1081q224 -1 377 -163t153 -392t-153 -391q-153 -160 -377 -160t-378 160q-153 160 -153 390t153 394q154 162 378 162zM262 1477h213l178 -281
h-135z" />
    <glyph glyph-name="oacute" unicode="&#xf3;" horiz-adv-x="1206" 
d="M604 922q-146 0 -252 -117q-104 -117 -104 -280t104 -277t251 -113q146 0 251 114q104 115 104 277t-104 279t-250 117zM603 1081q224 -1 377 -163t153 -392t-153 -391q-153 -160 -377 -160t-378 160q-153 160 -153 390t153 394q154 162 378 162zM938 1475l-256 -279
h-135l178 279h213z" />
    <glyph glyph-name="ocircumflex" unicode="&#xf4;" horiz-adv-x="1206" 
d="M604 922q-146 0 -252 -117q-104 -117 -104 -280t104 -277t251 -113q146 0 251 114q104 115 104 277t-104 279t-250 117zM603 1081q224 -1 377 -163t153 -392t-153 -391q-153 -160 -377 -160t-378 160q-153 160 -153 390t153 394q154 162 378 162zM731 1194l-131 186
l-133 -186h-156l213 293h152l213 -293h-158z" />
    <glyph glyph-name="otilde" unicode="&#xf5;" horiz-adv-x="1206" 
d="M604 922q-146 0 -252 -117q-104 -117 -104 -280t104 -277t251 -113q146 0 251 114q104 115 104 277t-104 279t-250 117zM603 1081q224 -1 377 -163t153 -392t-153 -391q-153 -160 -377 -160t-378 160q-153 160 -153 390t153 394q154 162 378 162zM711 1223q-59 0 -155 39
q-96 38 -134 38q-37 0 -61 -24t-27 -64h-96q6 90 60 154t132 64t172 -40t131 -40t61 24t27 64h99q-6 -90 -60 -152t-149 -63z" />
    <glyph glyph-name="odieresis" unicode="&#xf6;" horiz-adv-x="1206" 
d="M604 922q-146 0 -252 -117q-104 -117 -104 -280t104 -277t251 -113q146 0 251 114q104 115 104 277t-104 279t-250 117zM603 1081q224 -1 377 -163t153 -392t-153 -391q-153 -160 -377 -160t-378 160q-153 160 -153 390t153 394q154 162 378 162zM524 1217h-188v202h188
v-202zM870 1217h-188v202h188v-202z" />
    <glyph glyph-name="divide" unicode="&#xf7;" 
d="M307 784v-213h-205v213h205z" />
    <glyph glyph-name="oslash" unicode="&#xf8;" horiz-adv-x="1206" 
d="M958 524q0 119 -63 224l-518 -519q98 -88 235 -88q138 1 242 113t104 270zM248 524q0 -111 55 -205l516 517q-100 80 -217 79q-145 0 -250 -114q-104 -115 -104 -277zM1133 509q0 -214 -154 -375t-364 -161t-359 133l-88 -88l-84 84l94 93q-106 145 -106 329
q0 231 153 395q154 163 377 162q193 0 338 -125l98 99l84 -82l-102 -103q113 -147 113 -361z" />
    <glyph glyph-name="ugrave" unicode="&#xf9;" horiz-adv-x="1175" 
d="M1026 1055v-1055h-168v115q-117 -139 -307 -139t-298 122q-108 123 -108 322v635h172v-643q0 -129 68 -204t189 -75q122 0 200 78t78 197v647h174zM266 1477h213l178 -281h-135z" />
    <glyph glyph-name="uacute" unicode="&#xfa;" horiz-adv-x="1175" 
d="M1026 1055v-1055h-168v115q-117 -139 -307 -139t-298 122q-108 123 -108 322v635h172v-643q0 -129 68 -204t189 -75q122 0 200 78t78 197v647h174zM899 1475l-256 -279h-135l178 279h213z" />
    <glyph glyph-name="ucircumflex" unicode="&#xfb;" horiz-adv-x="1175" 
d="M1026 1055v-1055h-168v115q-117 -139 -307 -139t-298 122q-108 123 -108 322v635h172v-643q0 -129 68 -204t189 -75q122 0 200 78t78 197v647h174zM715 1194l-131 186l-131 -186h-158l213 293h151l213 -293h-157z" />
    <glyph glyph-name="udieresis" unicode="&#xfc;" horiz-adv-x="1175" 
d="M1026 1055v-1055h-168v115q-117 -139 -307 -139t-298 122q-108 123 -108 322v635h172v-643q0 -129 68 -204t189 -75q122 0 200 78t78 197v647h174zM500 1217h-187v202h187v-202zM846 1217h-189v202h189v-202z" />
    <glyph glyph-name="yacute" unicode="&#xfd;" horiz-adv-x="1024" 
d="M850 1444l-256 -279h-135l178 279h213zM1004 1055l-474 -1258q-55 -150 -150 -210t-251 -44v160q100 -8 153 27q52 35 87 129l55 147l-404 1049h189l307 -840l301 840h187z" />
    <glyph glyph-name="thorn" unicode="&#xfe;" horiz-adv-x="1282" 
d="M322 530q0 -162 106 -278t254 -117t250 115t102 279t-102 278t-250 115t-254 -115t-106 -277zM1208 529q0 -230 -152 -392t-374 -162q-111 -1 -206 51t-154 134v-629h-172v1890h172v-526q61 82 155 134t205 52q223 0 375 -160q151 -162 151 -392z" />
    <glyph glyph-name="ydieresis" unicode="&#xff;" horiz-adv-x="1024" 
d="M1004 1055l-474 -1258q-55 -150 -150 -210t-251 -44v160q100 -8 153 27q52 35 87 129l55 147l-404 1049h189l307 -840l301 840h187zM430 1217h-188v202h188v-202zM776 1217h-188v202h188v-202z" />
    <glyph glyph-name="dotlessi" unicode="&#x131;" horiz-adv-x="477" 
d="M326 1055v-1055h-174v1055h174z" />
    <glyph glyph-name="Lslash" unicode="&#x141;" horiz-adv-x="1155" 
d="M1104 168v-168h-905v590l-179 -109v137l179 107v696h174v-592l344 209v-137l-344 -207v-526h731z" />
    <glyph glyph-name="lslash" unicode="&#x142;" horiz-adv-x="567" 
d="M371 0h-174v590l-177 -109v137l177 107v696h174v-592l176 107v-137l-176 -105v-694z" />
    <glyph glyph-name="OE" unicode="&#x152;" horiz-adv-x="2412" 
d="M1319 720q0 242 -154 406t-377 164q-222 0 -378 -167t-156 -407t156 -407q156 -166 378 -166t376 167q155 167 155 410zM1319 1421h1005v-166h-839v-430h766v-166h-766v-491h839v-168h-1005v246q-93 -127 -231 -199t-300 -72q-294 0 -500 215q-206 216 -206 526t207 525
t499 215q164 0 302 -70t229 -192v227z" />
    <glyph glyph-name="oe" unicode="&#x153;" horiz-adv-x="2080" 
d="M246 526q0 -162 104 -276t252 -115q148 1 252 115t104 277t-104 279t-252 116t-252 -117t-104 -279zM1487 924q-115 0 -213 -78t-131 -209h684q-33 127 -129 207t-211 80zM600 -25q-223 0 -376 161q-152 161 -152 391t152 393q153 162 376 161q150 -1 266 -75t178 -201
q68 127 183 202t258 74q217 0 377 -166t155 -434h-884q14 -158 119 -253t243 -95q223 0 313 195h185q-53 -168 -183 -260t-296 -92t-284 73q-118 74 -186 199q-63 -125 -179 -199t-265 -74z" />
    <glyph glyph-name="Scaron" unicode="&#x160;" horiz-adv-x="1224" 
d="M1147 396q-1 -198 -147 -310t-391 -111q-245 0 -393 131t-148 345h180q0 -141 100 -225t270 -85q170 0 263 70q92 70 92 180q0 109 -74 169q-73 60 -309 101t-358 131t-122 267q0 178 136 288q135 109 364 109q228 0 364 -119t136 -323h-176q0 128 -85 202t-242 74
t-239 -62t-81 -162q0 -100 72 -153q73 -51 307 -95t358 -134q123 -90 123 -288zM897 1880l-213 -293h-152l-213 293h158l131 -186l131 186h158z" />
    <glyph glyph-name="scaron" unicode="&#x161;" horiz-adv-x="1030" 
d="M537 135q117 0 189 50q72 49 73 117q-1 68 -55 106t-248 66t-295 91t-101 195t108 227q108 94 299 94t306 -88t131 -241h-176q-18 82 -86 126t-169 44t-170 -43t-69 -101t54 -87q54 -28 207 -51q269 -40 350 -116q82 -77 82 -220q0 -142 -121 -236q-120 -94 -312 -94
t-321 96q-129 98 -150 264h177q16 -90 98 -144t199 -55zM821 1487l-213 -293h-151l-213 293h157l131 -187l132 187h157z" />
    <glyph glyph-name="Ydieresis" unicode="&#x178;" horiz-adv-x="1177" 
d="M676 0h-174v614l-494 807h201l381 -647l381 647h198l-493 -807v-614zM518 1585h-188v205h188v-205zM862 1585h-186v205h186v-205z" />
    <glyph glyph-name="Zcaron" unicode="&#x17d;" horiz-adv-x="1191" 
d="M897 1880l-213 -293h-152l-213 293h158l131 -186l131 186h158zM1137 168v-168h-1082v156l863 1099h-836v166h1051v-159l-857 -1094h861z" />
    <glyph glyph-name="zcaron" unicode="&#x17e;" horiz-adv-x="962" 
d="M797 1487l-213 -293h-152l-213 293h158l131 -187l131 187h158zM907 168v-168h-852v145l607 744h-590v166h817v-158l-600 -729h618z" />
    <glyph glyph-name="florin" unicode="&#x192;" horiz-adv-x="927" 
d="M754 938v-125h-185l-98 -459q-39 -188 -158 -259t-282 -25v174q88 -41 167 -8t103 143q49 238 92 434h-151v125h178l29 131q39 186 158 257q120 71 284 26v-174q-90 41 -169 8t-101 -142l-25 -106h158z" />
    <glyph glyph-name="circumflex" unicode="&#x2c6;" horiz-adv-x="854" 
d="M426 1401l-131 -166h-148l213 260h132l215 -260h-150z" />
    <glyph glyph-name="caron" unicode="&#x2c7;" horiz-adv-x="749" 
d="M664 1487l-213 -293h-152l-213 293h158l131 -187l131 187h158z" />
    <glyph glyph-name="breve" unicode="&#x2d8;" horiz-adv-x="794" 
d="M397 1208q-133 0 -218 75t-93 192h96q49 -147 225 -147t214 147h88q-7 -117 -93 -192t-219 -75z" />
    <glyph glyph-name="dotaccent" unicode="&#x2d9;" horiz-adv-x="358" 
d="M272 1217h-186v204h186v-204z" />
    <glyph glyph-name="ring" unicode="&#x2da;" horiz-adv-x="563" 
d="M281 1663q43 1 73 31t31 74q0 44 -31 75q-32 31 -74 31t-73 -31t-31 -75t31 -74t74 -31zM281 1573q-82 0 -139 57q-56 57 -56 138q0 80 56 138t138 58t140 -57q57 -57 57 -139t-57 -138q-57 -57 -139 -57z" />
    <glyph glyph-name="ogonek" unicode="&#x2db;" horiz-adv-x="460" 
d="M375 -276v-72q-72 -49 -156 -41t-117 72q-43 107 33 211q45 61 123 106h113q-103 -63 -149 -140t-24 -119t74 -45q54 -3 103 28z" />
    <glyph glyph-name="tilde" unicode="&#x2dc;" horiz-adv-x="854" 
d="M559 1251q-59 0 -155 40t-133 40q-35 1 -59 -25t-28 -65h-98q6 89 60 153t133 64t173 -40t132 -40t60 25t26 63h98q-8 -90 -62 -152t-147 -63z" />
    <glyph glyph-name="hungarumlaut" unicode="&#x2dd;" horiz-adv-x="851" 
d="M434 1475l-211 -279h-137l135 279h213zM766 1475l-211 -279h-137l135 279h213z" />
    <glyph glyph-name="Delta" unicode="&#x394;" 
d="M307 784v-213h-205v213h205z" />
    <glyph glyph-name="Omega" unicode="&#x3a9;" 
d="M307 784v-213h-205v213h205z" />
    <glyph glyph-name="pi" unicode="&#x3c0;" 
d="M307 784v-213h-205v213h205z" />
    <glyph glyph-name="endash" unicode="&#x2013;" horiz-adv-x="1292" 
d="M1202 481h-1112v168h1112v-168z" />
    <glyph glyph-name="emdash" unicode="&#x2014;" horiz-adv-x="1998" 
d="M1911 481h-1821v168h1821v-168z" />
    <glyph glyph-name="quoteleft" unicode="&#x2018;" horiz-adv-x="366" 
d="M291 1174v-211h-205v258q0 98 55 154t135 63v-90q-102 -16 -102 -127v-47h117z" />
    <glyph glyph-name="quoteright" unicode="&#x2019;" horiz-adv-x="366" 
d="M283 1421v-258q-1 -98 -57 -153t-136 -64v90q102 16 103 127v47h-115v211h205z" />
    <glyph glyph-name="quotesinglbase" unicode="&#x201a;" horiz-adv-x="366" 
d="M283 211v-258q-1 -97 -57 -153t-136 -64v90q102 16 103 127v47h-115v211h205z" />
    <glyph glyph-name="quotedblleft" unicode="&#x201c;" horiz-adv-x="688" 
d="M174 1174h117v-211h-205v258q0 98 56 154t134 63v-90q-102 -16 -102 -127v-47zM610 1174v-211h-204v258q0 98 56 154t134 63v-90q-100 -16 -100 -127v-47h114z" />
    <glyph glyph-name="quotedblright" unicode="&#x201d;" horiz-adv-x="686" 
d="M78 1421h205v-258q-1 -98 -57 -153t-136 -64v90q102 16 103 127v47h-115v211zM602 1421v-258q0 -98 -56 -153t-136 -64v90q102 16 102 127v47h-117v211h207z" />
    <glyph glyph-name="quotedblbase" unicode="&#x201e;" horiz-adv-x="686" 
d="M78 211h205v-258q-1 -97 -57 -153t-136 -64v90q102 16 103 127v47h-115v211zM602 211v-258q0 -97 -56 -153t-136 -64v90q102 16 102 127v47h-117v211h207z" />
    <glyph glyph-name="dagger" unicode="&#x2020;" horiz-adv-x="757" 
d="M457 1161h215v-149h-215v-604h-156v604h-215v149h215v260h156v-260z" />
    <glyph glyph-name="daggerdbl" unicode="&#x2021;" horiz-adv-x="757" 
d="M457 1012v-193h215v-149h-215v-260h-156v260h-215v149h215v193h-215v149h215v260h156v-260h215v-149h-215z" />
    <glyph glyph-name="bullet" unicode="&#x2022;" horiz-adv-x="641" 
d="M321 528q-91 0 -155 64t-64 154q0 92 64 155t154 63t154 -64t65 -154t-63 -154t-155 -64z" />
    <glyph glyph-name="ellipsis" unicode="&#x2026;" horiz-adv-x="1728" 
d="M307 213v-213h-205v213h205zM967 213v-213h-205v213h205zM1626 213v-213h-205v213h205z" />
    <glyph glyph-name="perthousand" unicode="&#x2030;" horiz-adv-x="2469" 
d="M1264 543q-78 -1 -134 -59t-57 -140q0 -82 56 -140q57 -58 135 -58t134 58t56 140t-56 140t-134 59zM2265 344q0 82 -56 140t-135 59q-78 1 -134 -57t-56 -141t55 -141t135 -58t135 58q56 58 56 140zM394 879q79 0 134 57q56 57 56 140q0 84 -56 142t-134 58
q-79 0 -134 -58t-55 -140t55 -141q55 -58 134 -58zM1263 0q-142 0 -243 101q-100 101 -100 243t100 244t242 102t244 -101t102 -243t-102 -244t-243 -102zM2074 0q-142 0 -244 101q-101 101 -101 243t101 244q102 102 244 102t243 -101t101 -243t-100 -244
q-102 -102 -244 -102zM334 -25l833 1446h142l-836 -1446h-139zM394 1421q142 0 244 -100q102 -99 101 -243q0 -144 -101 -244q-102 -100 -244 -100t-243 100t-102 243t101 243t244 101z" />
    <glyph glyph-name="guilsinglleft" unicode="&#x2039;" horiz-adv-x="430" 
d="M371 778l-205 -164l205 -168v-180l-324 279v137l324 279v-183z" />
    <glyph glyph-name="guilsinglright" unicode="&#x203a;" horiz-adv-x="430" 
d="M385 682v-137l-326 -279v180l205 168l-205 164v183z" />
    <glyph glyph-name="Euro" unicode="&#x20ac;" horiz-adv-x="1409" 
d="M798 -8q-186 0 -348 125t-227 321h-151v117h125q-13 95 -4 150h-121v116h139q55 211 224 348t382 138q147 -1 279 -63t223 -173l-80 -164q-63 104 -178 170t-251 66t-252 -90t-165 -232h805l-57 -116h-774q-2 -17 -2 -63t8 -87h696l-57 -117h-604q56 -127 166 -205
t243 -77q193 0 328 157h201q-82 -147 -222 -234t-326 -87z" />
    <glyph glyph-name="trademark" unicode="&#x2122;" horiz-adv-x="1837" 
d="M68 1421h649v-133h-252v-760h-141v760h-256v133zM1710 1421v-893h-141v646l-238 -646h-143l-236 646v-646h-143v893h190l261 -719l262 719h188z" />
    <glyph glyph-name="partialdiff" unicode="&#x2202;" 
d="M307 784v-213h-205v213h205z" />
    <glyph glyph-name="product" unicode="&#x220f;" 
d="M307 784v-213h-205v213h205z" />
    <glyph glyph-name="summation" unicode="&#x2211;" 
d="M307 784v-213h-205v213h205z" />
    <glyph glyph-name="fraction" unicode="&#x2215;" 
d="M307 784v-213h-205v213h205z" />
    <glyph glyph-name="radical" unicode="&#x221a;" 
d="M307 784v-213h-205v213h205z" />
    <glyph glyph-name="integral" unicode="&#x222b;" 
d="M307 784v-213h-205v213h205z" />
    <glyph glyph-name="approxequal" unicode="&#x2248;" 
d="M307 784v-213h-205v213h205z" />
    <glyph glyph-name="lessequal" unicode="&#x2264;" 
d="M307 784v-213h-205v213h205z" />
    <glyph glyph-name="greaterequal" unicode="&#x2265;" 
d="M307 784v-213h-205v213h205z" />
    <glyph glyph-name="lozenge" unicode="&#x25ca;" 
d="M307 784v-213h-205v213h205z" />
    <glyph glyph-name="apple" unicode="&#xf8ff;" horiz-adv-x="1851" 
d="M1559 283q-86 53 -177 86q-76 -199 -208 -306q229 46 385 220zM1090 63q158 86 247 320q-109 33 -247 39v-359zM1718 688h-276q-2 -137 -43 -274q94 -31 190 -95q123 160 129 369zM1090 688v-217q143 -6 262 -43q41 127 43 260h-305zM1090 735h305q-2 131 -43 258
q-125 -35 -262 -41v-217zM1399 1008q41 -133 43 -273h276q-6 205 -129 369q-92 -61 -190 -96zM1090 999q143 10 247 41q-88 229 -247 320v-361zM1174 1360q133 -106 208 -305q90 33 177 86q-156 174 -385 219zM793 1421h188v-256h-188q-197 0 -318 -132t-121 -322
q0 -191 121 -323t318 -132h188v-256h-188q-313 0 -511 208t-198 503t198 503t511 207zM1767 711q0 -207 -104 -371t-263 -248t-335 -90l-25 -2v1423l25 -2q176 -6 335 -90q159 -85 263 -249t104 -371z" />
    <glyph glyph-name="CR" horiz-adv-x="604" 
 />
    </font>
</defs>
</svg>
